  0
SECTION
  2
HEADER
  9
$ACADVER
  1
AC1015
  9
$ACADMAINTVER
 70
     6
  9
$DWGCODEPAGE
  3
ANSI_1252
  9
$INSBASE
 10
0.0
 20
0.0
 30
0.0
  9
$EXTMIN
 10
-0.00000000000011
 20
0.0
 30
0.0
  9
$EXTMAX
 10
297.0
 20
210.0000000000001
 30
0.0
  9
$LIMMIN
 10
0.0
 20
0.0
  9
$LIMMAX
 10
12.0
 20
9.0
  9
$ORTHOMODE
 70
     0
  9
$REGENMODE
 70
     1
  9
$FILLMODE
 70
     1
  9
$QTEXTMODE
 70
     0
  9
$MIRRTEXT
 70
     1
  9
$LTSCALE
 40
1.0
  9
$ATTMODE
 70
     1
  9
$TEXTSIZE
 40
0.2
  9
$TRACEWID
 40
0.05
  9
$TEXTSTYLE
  7
Standard
  9
$CLAYER
  8
0
  9
$CELTYPE
  6
ByLayer
  9
$CECOLOR
 62
   256
  9
$CELTSCALE
 40
1.0
  9
$DISPSILH
 70
     0
  9
$DIMSCALE
 40
1.0
  9
$DIMASZ
 40
0.18
  9
$DIMEXO
 40
0.0625
  9
$DIMDLI
 40
0.38
  9
$DIMRND
 40
0.0
  9
$DIMDLE
 40
0.0
  9
$DIMEXE
 40
0.18
  9
$DIMTP
 40
0.0
  9
$DIMTM
 40
0.0
  9
$DIMTXT
 40
0.18
  9
$DIMCEN
 40
0.09
  9
$DIMTSZ
 40
0.0
  9
$DIMTOL
 70
     0
  9
$DIMLIM
 70
     0
  9
$DIMTIH
 70
     1
  9
$DIMTOH
 70
     1
  9
$DIMSE1
 70
     0
  9
$DIMSE2
 70
     0
  9
$DIMTAD
 70
     0
  9
$DIMZIN
 70
     0
  9
$DIMBLK
  1

  9
$DIMASO
 70
     1
  9
$DIMSHO
 70
     1
  9
$DIMPOST
  1

  9
$DIMAPOST
  1

  9
$DIMALT
 70
     0
  9
$DIMALTD
 70
     2
  9
$DIMALTF
 40
25.4
  9
$DIMLFAC
 40
1.0
  9
$DIMTOFL
 70
     0
  9
$DIMTVP
 40
0.0
  9
$DIMTIX
 70
     0
  9
$DIMSOXD
 70
     0
  9
$DIMSAH
 70
     0
  9
$DIMBLK1
  1

  9
$DIMBLK2
  1

  9
$DIMSTYLE
  2
Standard
  9
$DIMCLRD
 70
     0
  9
$DIMCLRE
 70
     0
  9
$DIMCLRT
 70
     0
  9
$DIMTFAC
 40
1.0
  9
$DIMGAP
 40
0.09
  9
$DIMJUST
 70
     0
  9
$DIMSD1
 70
     0
  9
$DIMSD2
 70
     0
  9
$DIMTOLJ
 70
     1
  9
$DIMTZIN
 70
     0
  9
$DIMALTZ
 70
     0
  9
$DIMALTTZ
 70
     0
  9
$DIMUPT
 70
     0
  9
$DIMDEC
 70
     4
  9
$DIMTDEC
 70
     4
  9
$DIMALTU
 70
     2
  9
$DIMALTTD
 70
     2
  9
$DIMTXSTY
  7
Standard
  9
$DIMAUNIT
 70
     0
  9
$DIMADEC
 70
     0
  9
$DIMALTRND
 40
0.0
  9
$DIMAZIN
 70
     0
  9
$DIMDSEP
 70
    46
  9
$DIMATFIT
 70
     3
  9
$DIMFRAC
 70
     0
  9
$DIMLDRBLK
  1

  9
$DIMLUNIT
 70
     2
  9
$DIMLWD
 70
    -2
  9
$DIMLWE
 70
    -2
  9
$DIMTMOVE
 70
     0
  9
$LUNITS
 70
     2
  9
$LUPREC
 70
     4
  9
$SKETCHINC
 40
0.1
  9
$FILLETRAD
 40
0.5
  9
$AUNITS
 70
     0
  9
$AUPREC
 70
     0
  9
$MENU
  1
.
  9
$ELEVATION
 40
0.0
  9
$PELEVATION
 40
0.0
  9
$THICKNESS
 40
0.0
  9
$LIMCHECK
 70
     0
  9
$CHAMFERA
 40
0.5
  9
$CHAMFERB
 40
0.5
  9
$CHAMFERC
 40
1.0
  9
$CHAMFERD
 40
0.0
  9
$SKPOLY
 70
     0
  9
$TDCREATE
 40
2457163.637498067
  9
$TDUCREATE
 40
2457163.554164734
  9
$TDUPDATE
 40
2457163.637498437
  9
$TDUUPDATE
 40
2457163.554165104
  9
$TDINDWG
 40
0.0000000116
  9
$TDUSRTIMER
 40
0.0000000116
  9
$USRTIMER
 70
     1
  9
$ANGBASE
 50
0.0
  9
$ANGDIR
 70
     0
  9
$PDMODE
 70
     0
  9
$PDSIZE
 40
0.0
  9
$PLINEWID
 40
0.0
  9
$SPLFRAME
 70
     0
  9
$SPLINETYPE
 70
     6
  9
$SPLINESEGS
 70
     8
  9
$HANDSEED
  5
2D4
  9
$SURFTAB1
 70
     6
  9
$SURFTAB2
 70
     6
  9
$SURFTYPE
 70
     6
  9
$SURFU
 70
     6
  9
$SURFV
 70
     6
  9
$UCSBASE
  2

  9
$UCSNAME
  2

  9
$UCSORG
 10
0.0
 20
0.0
 30
0.0
  9
$UCSXDIR
 10
1.0
 20
0.0
 30
0.0
  9
$UCSYDIR
 10
0.0
 20
1.0
 30
0.0
  9
$UCSORTHOREF
  2

  9
$UCSORTHOVIEW
 70
     0
  9
$UCSORGTOP
 10
0.0
 20
0.0
 30
0.0
  9
$UCSORGBOTTOM
 10
0.0
 20
0.0
 30
0.0
  9
$UCSORGLEFT
 10
0.0
 20
0.0
 30
0.0
  9
$UCSORGRIGHT
 10
0.0
 20
0.0
 30
0.0
  9
$UCSORGFRONT
 10
0.0
 20
0.0
 30
0.0
  9
$UCSORGBACK
 10
0.0
 20
0.0
 30
0.0
  9
$PUCSBASE
  2

  9
$PUCSNAME
  2

  9
$PUCSORG
 10
0.0
 20
0.0
 30
0.0
  9
$PUCSXDIR
 10
1.0
 20
0.0
 30
0.0
  9
$PUCSYDIR
 10
0.0
 20
1.0
 30
0.0
  9
$PUCSORTHOREF
  2

  9
$PUCSORTHOVIEW
 70
     0
  9
$PUCSORGTOP
 10
0.0
 20
0.0
 30
0.0
  9
$PUCSORGBOTTOM
 10
0.0
 20
0.0
 30
0.0
  9
$PUCSORGLEFT
 10
0.0
 20
0.0
 30
0.0
  9
$PUCSORGRIGHT
 10
0.0
 20
0.0
 30
0.0
  9
$PUCSORGFRONT
 10
0.0
 20
0.0
 30
0.0
  9
$PUCSORGBACK
 10
0.0
 20
0.0
 30
0.0
  9
$USERI1
 70
     0
  9
$USERI2
 70
     0
  9
$USERI3
 70
     0
  9
$USERI4
 70
     0
  9
$USERI5
 70
     0
  9
$USERR1
 40
18.1
  9
$USERR2
 40
0.0
  9
$USERR3
 40
0.0
  9
$USERR4
 40
0.0
  9
$USERR5
 40
0.0
  9
$WORLDVIEW
 70
     1
  9
$SHADEDGE
 70
     3
  9
$SHADEDIF
 70
    70
  9
$TILEMODE
 70
     1
  9
$MAXACTVP
 70
    64
  9
$PINSBASE
 10
0.0
 20
0.0
 30
0.0
  9
$PLIMCHECK
 70
     0
  9
$PEXTMIN
 10
1.00000000000000E+20
 20
1.00000000000000E+20
 30
1.00000000000000E+20
  9
$PEXTMAX
 10
-1.00000000000000E+20
 20
-1.00000000000000E+20
 30
-1.00000000000000E+20
  9
$PLIMMIN
 10
0.0
 20
0.0
  9
$PLIMMAX
 10
12.0
 20
9.0
  9
$UNITMODE
 70
     0
  9
$VISRETAIN
 70
     1
  9
$PLINEGEN
 70
     0
  9
$PSLTSCALE
 70
     1
  9
$TREEDEPTH
 70
  3020
  9
$CMLSTYLE
  2
Standard
  9
$CMLJUST
 70
     0
  9
$CMLSCALE
 40
1.0
  9
$PROXYGRAPHICS
 70
     1
  9
$MEASUREMENT
 70
     1
  9
$CELWEIGHT
370
    -1
  9
$ENDCAPS
280
     0
  9
$JOINSTYLE
280
     0
  9
$LWDISPLAY
290
     0
  9
$INSUNITS
 70
     4
  9
$HYPERLINKBASE
  1

  9
$STYLESHEET
  1

  9
$XEDIT
290
     1
  9
$CEPSNTYPE
380
     0
  9
$PSTYLEMODE
290
     1
  9
$FINGERPRINTGUID
  2
{52692156-81F5-4889-A02B-22703B9C8225}
  9
$VERSIONGUID
  2
{FAEB1C32-E019-11D5-929B-00C0DF256EC4}
  9
$EXTNAMES
290
     1
  9
$PSVPSCALE
 40
0.0
  9
$OLESTARTUP
290
     0
  0
ENDSEC
  0
SECTION
  2
CLASSES
  0
CLASS
  1
ACDBDICTIONARYWDFLT
  2
AcDbDictionaryWithDefault
  3
ObjectDBX Classes
 90
        0
280
     0
281
     0
  0
CLASS
  1
VISUALSTYLE
  2
AcDbVisualStyle
  3
ObjectDBX Classes
 90
     4095
280
     0
281
     0
  0
CLASS
  1
MATERIAL
  2
AcDbMaterial
  3
ObjectDBX Classes
 90
     1153
280
     0
281
     0
  0
CLASS
  1
DICTIONARYVAR
  2
AcDbDictionaryVar
  3
ObjectDBX Classes
 90
        0
280
     0
281
     0
  0
CLASS
  1
ACDBPLACEHOLDER
  2
AcDbPlaceHolder
  3
ObjectDBX Classes
 90
        0
280
     0
281
     0
  0
CLASS
  1
LAYOUT
  2
AcDbLayout
  3
ObjectDBX Classes
 90
        0
280
     0
281
     0
  0
ENDSEC
  0
SECTION
  2
TABLES
  0
TABLE
  2
VPORT
  5
8
330
0
100
AcDbSymbolTable
 70
     1
  0
VPORT
  5
29
330
8
100
AcDbSymbolTableRecord
100
AcDbViewportTableRecord
  2
*Active
 70
     0
 10
0.0
 20
0.0
 11
1.0
 21
1.0
 12
148.4999999999999
 22
105.0000000000001
 13
0.0
 23
0.0
 14
0.5
 24
0.5
 15
0.5
 25
0.5
 16
0.0
 26
0.0
 36
1.0
 17
0.0
 27
0.0
 37
0.0
 40
231.0000000000001
 41
1.60267857142857
 42
50.0
 43
0.0
 44
0.0
 50
0.0
 51
0.0
 71
     0
 72
   100
 73
     1
 74
     3
 75
     0
 76
     0
 77
     0
 78
     0
281
     0
 65
     1
110
0.0
120
0.0
130
0.0
111
1.0
121
0.0
131
0.0
112
0.0
122
1.0
132
0.0
 79
     0
146
0.0
  0
ENDTAB
  0
TABLE
  2
LTYPE
  5
5
330
0
100
AcDbSymbolTable
 70
     8
  0
LTYPE
  5
14
330
5
100
AcDbSymbolTableRecord
100
AcDbLinetypeTableRecord
  2
ByBlock
 70
     0
  3

 72
    65
 73
     0
 40
0.0
  0
LTYPE
  5
15
330
5
100
AcDbSymbolTableRecord
100
AcDbLinetypeTableRecord
  2
ByLayer
 70
     0
  3

 72
    65
 73
     0
 40
0.0
  0
LTYPE
  5
16
330
5
100
AcDbSymbolTableRecord
100
AcDbLinetypeTableRecord
  2
Continuous
 70
     0
  3
Solid line
 72
    65
 73
     0
 40
0.0
  0
LTYPE
  5
3F
330
5
100
AcDbSymbolTableRecord
100
AcDbLinetypeTableRecord
  2
DASHED
 70
     0
  3
Dashed
 72
    65
 73
     2
 40
15.0
 49
7.0
 74
     0
 49
-8.0
 74
     0
  0
LTYPE
  5
40
330
5
100
AcDbSymbolTableRecord
100
AcDbLinetypeTableRecord
  2
DOTTED
 70
     0
  3
Dotted
 72
    65
 73
     2
 40
1.0
 49
0.0
 74
     0
 49
-1.0
 74
     0
  0
LTYPE
  5
41
330
5
100
AcDbSymbolTableRecord
100
AcDbLinetypeTableRecord
  2
DOT_CENTER
 70
     0
  3
Dot_Center
 72
    65
 73
     4
 40
14.0
 49
12.0
 74
     0
 49
-1.0
 74
     0
 49
0.0
 74
     0
 49
-1.0
 74
     0
  0
LTYPE
  5
42
330
5
100
AcDbSymbolTableRecord
100
AcDbLinetypeTableRecord
  2
LONG_DASHED
 70
     0
  3
Long_Dashed
 72
    65
 73
     2
 40
15.0
 49
10.0
 74
     0
 49
-5.0
 74
     0
  0
LTYPE
  5
43
330
5
100
AcDbSymbolTableRecord
100
AcDbLinetypeTableRecord
  2
DASH_CENTER
 70
     0
  3
Dash_Center
 72
    65
 73
     4
 40
14.0
 49
11.0
 74
     0
 49
-1.0
 74
     0
 49
1.0
 74
     0
 49
-1.0
 74
     0
  0
LTYPE
  5
44
330
5
100
AcDbSymbolTableRecord
100
AcDbLinetypeTableRecord
  2
PHANTOM
 70
     0
  3
Phantom
 72
    65
 73
     6
 40
13.0
 49
10.0
 74
     0
 49
-1.0
 74
     0
 49
0.0
 74
     0
 49
-1.0
 74
     0
 49
0.0
 74
     0
 49
-1.0
 74
     0
  0
LTYPE
  5
45
330
5
100
AcDbSymbolTableRecord
100
AcDbLinetypeTableRecord
  2
CENTER_DASH_DASH
 70
     0
  3
Center_Dash_Dash
 72
    65
 73
     6
 40
14.0
 49
9.0
 74
     0
 49
-1.0
 74
     0
 49
1.0
 74
     0
 49
-1.0
 74
     0
 49
1.0
 74
     0
 49
-1.0
 74
     0
  0
ENDTAB
  0
TABLE
  2
LAYER
  5
2
330
0
100
AcDbSymbolTable
 70
     2
  0
LAYER
  5
10
330
2
100
AcDbSymbolTableRecord
100
AcDbLayerTableRecord
  2
0
 70
     0
 62
     7
  6
Continuous
370
    -3
390
F
  0
LAYER
  5
46
330
2
100
AcDbSymbolTableRecord
100
AcDbLayerTableRecord
  2
1
 70
     0
 62
     7
  6
Continuous
370
    -3
390
F
  0
ENDTAB
  0
TABLE
  2
STYLE
  5
3
330
0
100
AcDbSymbolTable
 70
     4
  0
STYLE
  5
11
330
3
100
AcDbSymbolTableRecord
100
AcDbTextStyleTableRecord
  2
Standard
 70
     0
 40
0.0
 41
1.0
 50
0.0
 71
     0
 42
0.2
  3
txt
  4

  0
STYLE
  5
25F
330
3
100
AcDbSymbolTableRecord
100
AcDbTextStyleTableRecord
  2
CONVERTER_11
 70
     0
 40
0.0
 41
1.2
 50
0.0
 71
     0
 42
0.2
  3
ARIAL.TTF
  4

  0
STYLE
  5
264
330
3
100
AcDbSymbolTableRecord
100
AcDbTextStyleTableRecord
  2
CONVERTER_12
 70
     0
 40
0.0
 41
0.95
 50
0.0
 71
     0
 42
0.2
  3
simplex.shx
  4

  0
STYLE
  5
268
330
3
100
AcDbSymbolTableRecord
100
AcDbTextStyleTableRecord
  2
CONVERTER_13
 70
     0
 40
0.0
 41
1.38
 50
0.0
 71
     0
 42
0.2
  3
ARIAL.TTF
  4

  0
ENDTAB
  0
TABLE
  2
VIEW
  5
6
330
0
100
AcDbSymbolTable
 70
     0
  0
ENDTAB
  0
TABLE
  2
UCS
  5
7
330
0
100
AcDbSymbolTable
 70
     0
  0
ENDTAB
  0
TABLE
  2
APPID
  5
9
330
0
100
AcDbSymbolTable
 70
     1
  0
APPID
  5
12
330
9
100
AcDbSymbolTableRecord
100
AcDbRegAppTableRecord
  2
ACAD
 70
     0
  0
ENDTAB
  0
TABLE
  2
DIMSTYLE
  5
A
330
0
100
AcDbSymbolTable
 70
     6
100
AcDbDimStyleTable
  0
DIMSTYLE
105
27
330
A
100
AcDbSymbolTableRecord
100
AcDbDimStyleTableRecord
  2
Standard
 70
     0
178
     0
340
11
  0
DIMSTYLE
105
275
102
{ACAD_REACTORS
330
276
102
}
330
A
100
AcDbSymbolTableRecord
100
AcDbDimStyleTableRecord
  2
ME10_DIM_10
 70
     0
 41
3.0
 42
0.5
 44
1.0
 73
     0
 74
     0
 77
     1
 78
     8
140
3.0
147
2.0
172
     1
173
     1
174
     1
175
     1
176
     7
177
     7
271
     2
178
     7
271
     2
340
264
  0
DIMSTYLE
105
280
102
{ACAD_REACTORS
330
281
102
}
330
A
100
AcDbSymbolTableRecord
100
AcDbDimStyleTableRecord
  2
ME10_DIM_11
 70
     0
 41
3.0
 42
0.5
 44
1.0
 73
     0
 74
     0
 77
     1
 78
     8
140
3.0
147
2.0
172
     1
173
     1
174
     1
175
     1
176
     7
177
     7
271
     2
178
     7
271
     2
340
264
  0
DIMSTYLE
105
28B
102
{ACAD_REACTORS
330
28C
102
}
330
A
100
AcDbSymbolTableRecord
100
AcDbDimStyleTableRecord
  2
ME10_DIM_12
 70
     0
 41
3.0
 42
0.5
 44
1.0
 73
     0
 74
     0
 77
     1
 78
     8
140
3.0
147
2.0
172
     1
173
     1
174
     1
175
     1
176
     7
177
     7
271
     2
178
     7
271
     2
340
264
  0
DIMSTYLE
105
298
102
{ACAD_REACTORS
330
299
102
}
330
A
100
AcDbSymbolTableRecord
100
AcDbDimStyleTableRecord
  2
ME10_DIM_13
 70
     0
 41
3.0
 42
0.5
 44
1.0
 73
     0
 74
     0
 77
     1
 78
     8
140
3.0
147
2.0
172
     1
173
     1
174
     1
175
     1
176
     7
177
     7
271
     2
178
     7
271
     2
340
264
  0
DIMSTYLE
105
2A3
102
{ACAD_REACTORS
330
2A4
102
}
330
A
100
AcDbSymbolTableRecord
100
AcDbDimStyleTableRecord
  2
ME10_DIM_14
 70
     0
 41
3.0
 42
0.5
 44
1.0
 73
     0
 74
     0
 77
     1
 78
     8
140
3.0
147
2.0
172
     1
173
     1
174
     1
175
     1
176
     7
177
     7
271
     2
178
     7
271
     2
340
264
  0
ENDTAB
  0
TABLE
  2
BLOCK_RECORD
  5
1
330
0
100
AcDbSymbolTable
 70
     7
  0
BLOCK_RECORD
  5
1F
330
1
100
AcDbSymbolTableRecord
100
AcDbBlockTableRecord
  2
*Model_Space
340
22
  0
BLOCK_RECORD
  5
1B
330
1
100
AcDbSymbolTableRecord
100
AcDbBlockTableRecord
  2
*Paper_Space
340
1E
  0
BLOCK_RECORD
  5
23
330
1
100
AcDbSymbolTableRecord
100
AcDbBlockTableRecord
  2
*Paper_Space0
340
26
  0
BLOCK_RECORD
  5
47
330
1
100
AcDbSymbolTableRecord
100
AcDbBlockTableRecord
  2
_dummy_frame
340
0
102
{BLKREFS
331
4A
102
}
  0
BLOCK_RECORD
  5
26C
330
1
100
AcDbSymbolTableRecord
100
AcDbBlockTableRecord
  2
*D2
340
0
  0
BLOCK_RECORD
  5
277
330
1
100
AcDbSymbolTableRecord
100
AcDbBlockTableRecord
  2
*D3
340
0
  0
BLOCK_RECORD
  5
282
330
1
100
AcDbSymbolTableRecord
100
AcDbBlockTableRecord
  2
*D4
340
0
  0
BLOCK_RECORD
  5
28D
330
1
100
AcDbSymbolTableRecord
100
AcDbBlockTableRecord
  2
*D5
340
0
  0
BLOCK_RECORD
  5
29A
330
1
100
AcDbSymbolTableRecord
100
AcDbBlockTableRecord
  2
*D6
340
0
  0
ENDTAB
  0
ENDSEC
  0
SECTION
  2
BLOCKS
  0
BLOCK
  5
20
330
1F
100
AcDbEntity
  8
0
100
AcDbBlockBegin
  2
*Model_Space
 70
     0
 10
0.0
 20
0.0
 30
0.0
  3
*Model_Space
  1

  0
ENDBLK
  5
21
330
1F
100
AcDbEntity
  8
0
100
AcDbBlockEnd
  0
BLOCK
  5
1C
330
1B
100
AcDbEntity
 67
     1
  8
0
100
AcDbBlockBegin
  2
*Paper_Space
 70
     0
 10
0.0
 20
0.0
 30
0.0
  3
*Paper_Space
  1

  0
ENDBLK
  5
1D
330
1B
100
AcDbEntity
 67
     1
  8
0
100
AcDbBlockEnd
  0
BLOCK
  5
24
330
23
100
AcDbEntity
  8
0
100
AcDbBlockBegin
  2
*Paper_Space0
 70
     0
 10
0.0
 20
0.0
 30
0.0
  3
*Paper_Space0
  1

  0
ENDBLK
  5
25
330
23
100
AcDbEntity
  8
0
100
AcDbBlockEnd
  0
BLOCK
  5
48
330
47
100
AcDbEntity
  8
0
100
AcDbBlockBegin
  2
_dummy_frame
 70
     0
 10
91.0277033482987
 20
5.00000000000001
 30
0.0
  3
_dummy_frame
  1

  0
POINT
  5
4B
330
47
100
AcDbEntity
  8
1
 62
     7
 60
     1
100
AcDbPoint
 10
91.0277033482987
 20
5.00000000000001
 30
0.0
  0
ENDBLK
  5
49
330
47
100
AcDbEntity
  8
0
100
AcDbBlockEnd
  0
BLOCK
  5
273
330
26C
100
AcDbEntity
  8
0
100
AcDbBlockBegin
  2
*D2
 70
     1
 10
0.0
 20
0.0
 30
0.0
  3
*D2
  1

  0
LINE
  5
26D
330
26C
100
AcDbEntity
  8
1
  6
Continuous
 62
     7
100
AcDbLine
 10
57.04116118110529
 20
73.12586068583
 30
0.0
 11
155.0411611811053
 21
73.12586068583
 31
0.0
  0
LINE
  5
26E
330
26C
100
AcDbEntity
  8
1
  6
Continuous
 62
     7
100
AcDbLine
 10
155.0411611811053
 20
87.88235476433601
 30
0.0
 11
155.0411611811053
 21
72.12586068583
 31
0.0
  0
LINE
  5
26F
330
26C
100
AcDbEntity
  8
1
  6
Continuous
 62
     7
100
AcDbLine
 10
57.04116118110529
 20
87.88235476433601
 30
0.0
 11
57.04116118110529
 21
72.12586068583
 31
0.0
  0
SOLID
  5
270
330
26C
100
AcDbEntity
  8
1
 62
     7
100
AcDbTrace
 10
60.04116118110529
 20
73.5208181785922
 30
0.0
 11
60.04116118110529
 21
72.73090319306782
 31
0.0
 12
57.04116118110529
 22
73.12586068583
 32
0.0
 13
57.04116118110529
 23
73.12586068583
 33
0.0
  0
SOLID
  5
271
330
26C
100
AcDbEntity
  8
1
 62
     7
100
AcDbTrace
 10
152.0411611811053
 20
72.73090319306782
 30
0.0
 11
152.0411611811053
 21
73.5208181785922
 31
0.0
 12
155.0411611811053
 22
73.12586068583
 32
0.0
 13
155.0411611811053
 23
73.12586068583
 33
0.0
  0
MTEXT
  5
272
330
26C
100
AcDbEntity
  8
1
 62
     7
100
AcDbMText
 10
103.7911611811053
 20
75.12586068583
 30
0.0
 40
3.0
 41
0.0
 71
     7
 72
     1
  1
98
  7
CONVERTER_12
 11
0.9999999999970619
 21
2.424068405545306E-6
 31
0.0
 73
     1
 44
0.60024009603842
  0
ENDBLK
  5
274
330
26C
100
AcDbEntity
  8
0
100
AcDbBlockEnd
  0
BLOCK
  5
27E
330
277
100
AcDbEntity
  8
0
100
AcDbBlockBegin
  2
*D3
 70
     1
 10
0.0
 20
0.0
 30
0.0
  3
*D3
  1

  0
LINE
  5
278
330
277
100
AcDbEntity
  8
1
  6
Continuous
 62
     7
100
AcDbLine
 10
177.8300594212511
 20
115.182354764336
 30
0.0
 11
177.8300594212511
 21
88.38235476433601
 31
0.0
  0
LINE
  5
279
330
277
100
AcDbEntity
  8
1
  6
Continuous
 62
     7
100
AcDbLine
 10
193.9411783252628
 20
88.38235476433601
 30
0.0
 11
176.8300594212511
 21
88.38235476433601
 31
0.0
  0
LINE
  5
27A
330
277
100
AcDbEntity
  8
1
  6
Continuous
 62
     7
100
AcDbLine
 10
195.2411783252627
 20
115.182354764336
 30
0.0
 11
176.8300594212511
 21
115.182354764336
 31
0.0
  0
SOLID
  5
27B
330
277
100
AcDbEntity
  8
1
 62
     7
100
AcDbTrace
 10
178.2250169140133
 20
112.182354764336
 30
0.0
 11
177.4351019284889
 21
112.182354764336
 31
0.0
 12
177.8300594212511
 22
115.182354764336
 32
0.0
 13
177.8300594212511
 23
115.182354764336
 33
0.0
  0
SOLID
  5
27C
330
277
100
AcDbEntity
  8
1
 62
     7
100
AcDbTrace
 10
177.4351019284889
 20
91.38235476433601
 30
0.0
 11
178.2250169140133
 21
91.38235476433601
 31
0.0
 12
177.8300594212511
 22
88.38235476433601
 32
0.0
 13
177.8300594212511
 23
88.38235476433601
 33
0.0
  0
MTEXT
  5
27D
330
277
100
AcDbEntity
  8
1
 62
     7
100
AcDbMText
 10
175.8300594212511
 20
99.532354764336
 30
0.0
 40
3.0
 41
0.0
 71
     7
 72
     1
  1
27
  7
CONVERTER_12
 11
0.0
 21
1.0
 31
0.0
 73
     1
 44
0.60024009603842
  0
ENDBLK
  5
27F
330
277
100
AcDbEntity
  8
0
100
AcDbBlockEnd
  0
BLOCK
  5
289
330
282
100
AcDbEntity
  8
0
100
AcDbBlockBegin
  2
*D4
 70
     1
 10
0.0
 20
0.0
 30
0.0
  3
*D4
  1

  0
LINE
  5
283
330
282
100
AcDbEntity
  8
1
  6
Continuous
 62
     7
100
AcDbLine
 10
194.4411783252627
 20
73.12586068582999
 30
0.0
 11
226.4411783252627
 21
73.12586068582999
 31
0.0
  0
LINE
  5
284
330
282
100
AcDbEntity
  8
1
  6
Continuous
 62
     7
100
AcDbLine
 10
194.4411783252627
 20
87.882354764336
 30
0.0
 11
194.4411783252627
 21
72.12586068582999
 31
0.0
  0
LINE
  5
285
330
282
100
AcDbEntity
  8
1
  6
Continuous
 62
     7
100
AcDbLine
 10
226.4411783252627
 20
87.882354764336
 30
0.0
 11
226.4411783252627
 21
72.12586068582999
 31
0.0
  0
SOLID
  5
286
330
282
100
AcDbEntity
  8
1
 62
     7
100
AcDbTrace
 10
197.4411783252627
 20
73.52081817859218
 30
0.0
 11
197.4411783252627
 21
72.7309031930678
 31
0.0
 12
194.4411783252627
 22
73.12586068582999
 32
0.0
 13
194.4411783252627
 23
73.12586068582999
 33
0.0
  0
SOLID
  5
287
330
282
100
AcDbEntity
  8
1
 62
     7
100
AcDbTrace
 10
223.4411783252627
 20
72.7309031930678
 30
0.0
 11
223.4411783252627
 21
73.52081817859218
 31
0.0
 12
226.4411783252627
 22
73.12586068582999
 32
0.0
 13
226.4411783252627
 23
73.12586068582999
 33
0.0
  0
MTEXT
  5
288
330
282
100
AcDbEntity
  8
1
 62
     7
100
AcDbMText
 10
208.1911783252627
 20
75.12586068582999
 30
0.0
 40
3.0
 41
0.0
 71
     7
 72
     1
  1
32
  7
CONVERTER_12
 11
0.9999999999970619
 21
2.424068405545306E-6
 31
0.0
 73
     1
 44
0.60024009603842
  0
ENDBLK
  5
28A
330
282
100
AcDbEntity
  8
0
100
AcDbBlockEnd
  0
BLOCK
  5
296
330
28D
100
AcDbEntity
  8
0
100
AcDbBlockBegin
  2
*D5
 70
     1
 10
0.0
 20
0.0
 30
0.0
  3
*D5
  1

  0
LINE
  5
28E
330
28D
100
AcDbEntity
  8
1
  6
Continuous
 62
     7
100
AcDbLine
 10
239.5269350812021
 20
79.7423062427348
 30
0.0
 11
239.5269350812021
 21
88.38235476433601
 31
0.0
  0
LINE
  5
28F
330
28D
100
AcDbEntity
  8
1
  6
Continuous
 62
     7
100
AcDbLine
 10
239.5269350812021
 20
88.38235476433601
 30
0.0
 11
239.5269350812021
 21
91.88235476433601
 31
0.0
  0
LINE
  5
290
330
28D
100
AcDbEntity
  8
1
  6
Continuous
 62
     7
100
AcDbLine
 10
239.5269350812021
 20
91.88235476433601
 30
0.0
 11
239.5269350812021
 21
97.88235476433601
 31
0.0
  0
LINE
  5
291
330
28D
100
AcDbEntity
  8
1
  6
Continuous
 62
     7
100
AcDbLine
 10
226.9411783252628
 20
88.38235476433601
 30
0.0
 11
240.5269350812021
 21
88.38235476433601
 31
0.0
  0
LINE
  5
292
330
28D
100
AcDbEntity
  8
1
  6
Continuous
 62
     7
100
AcDbLine
 10
226.9411783252628
 20
91.88235476433601
 30
0.0
 11
240.5269350812021
 21
91.88235476433601
 31
0.0
  0
SOLID
  5
293
330
28D
100
AcDbEntity
  8
1
 62
     7
100
AcDbTrace
 10
239.9218925739643
 20
85.38235476433601
 30
0.0
 11
239.1319775884399
 21
85.38235476433601
 31
0.0
 12
239.5269350812021
 22
88.38235476433601
 32
0.0
 13
239.5269350812021
 23
88.38235476433601
 33
0.0
  0
SOLID
  5
294
330
28D
100
AcDbEntity
  8
1
 62
     7
100
AcDbTrace
 10
239.1319775884399
 20
94.88235476433601
 30
0.0
 11
239.9218925739643
 21
94.88235476433601
 31
0.0
 12
239.5269350812021
 22
91.88235476433601
 32
0.0
 13
239.5269350812021
 23
91.88235476433601
 33
0.0
  0
MTEXT
  5
295
330
28D
100
AcDbEntity
  8
1
 62
     7
100
AcDbMText
 10
237.2269350812021
 20
79.7423062427348
 30
0.0
 40
3.0
 41
0.0
 71
     7
 72
     1
  1
3,5
  7
CONVERTER_12
 11
0.0
 21
1.0
 31
0.0
 73
     1
 44
0.60024009603842
  0
ENDBLK
  5
297
330
28D
100
AcDbEntity
  8
0
100
AcDbBlockEnd
  0
BLOCK
  5
2A1
330
29A
100
AcDbEntity
  8
0
100
AcDbBlockBegin
  2
*D6
 70
     1
 10
0.0
 20
0.0
 30
0.0
  3
*D6
  1

  0
LINE
  5
29B
330
29A
100
AcDbEntity
  8
1
  6
Continuous
 62
     7
100
AcDbLine
 10
195.7411783252627
 20
152.4702171543729
 30
0.0
 11
248.4710331078197
 21
152.4702171543729
 31
0.0
  0
LINE
  5
29C
330
29A
100
AcDbEntity
  8
1
  6
Continuous
 62
     7
100
AcDbLine
 10
248.4710331078197
 20
103.082354764336
 30
0.0
 11
248.4710331078197
 21
153.4702171543729
 31
0.0
  0
LINE
  5
29D
330
29A
100
AcDbEntity
  8
1
  6
Continuous
 62
     7
100
AcDbLine
 10
195.7411783252627
 20
115.682354764336
 30
0.0
 11
195.7411783252627
 21
153.4702171543729
 31
0.0
  0
SOLID
  5
29E
330
29A
100
AcDbEntity
  8
1
 62
     7
100
AcDbTrace
 10
198.7411783252627
 20
152.8651746471351
 30
0.0
 11
198.7411783252627
 21
152.0752596616107
 31
0.0
 12
195.7411783252627
 22
152.4702171543729
 32
0.0
 13
195.7411783252627
 23
152.4702171543729
 33
0.0
  0
SOLID
  5
29F
330
29A
100
AcDbEntity
  8
1
 62
     7
100
AcDbTrace
 10
245.4710331078197
 20
152.0752596616107
 30
0.0
 11
245.4710331078197
 21
152.8651746471351
 31
0.0
 12
248.4710331078197
 22
152.4702171543729
 32
0.0
 13
248.4710331078197
 23
152.4702171543729
 33
0.0
  0
MTEXT
  5
2A0
330
29A
100
AcDbEntity
  8
1
 62
     7
100
AcDbMText
 10
219.8561057165412
 20
154.4702171543729
 30
0.0
 40
3.0
 41
0.0
 71
     7
 72
     1
  1
55
  7
CONVERTER_12
 11
0.9999999999970619
 21
2.424068405545306E-6
 31
0.0
 73
     1
 44
0.60024009603842
  0
ENDBLK
  5
2A2
330
29A
100
AcDbEntity
  8
0
100
AcDbBlockEnd
  0
ENDSEC
  0
SECTION
  2
ENTITIES
  0
INSERT
  5
4A
330
1F
100
AcDbEntity
  8
1
100
AcDbBlockReference
  2
_dummy_frame
 10
91.0277033482987
 20
5.00000000000001
 30
0.0
  0
LINE
  5
4C
330
1F
100
AcDbEntity
  8
0
  6
Continuous
 62
     7
100
AcDbLine
 10
63.04116118110525
 20
93.682354764336
 30
0.0
 11
59.04116118110525
 21
93.682354764336
 31
0.0
  0
LINE
  5
4D
330
1F
100
AcDbEntity
  8
0
  6
Continuous
 62
     7
100
AcDbLine
 10
63.04116118110525
 20
88.38235476433601
 30
0.0
 11
149.0411611811053
 21
88.38235476433601
 31
0.0
  0
LINE
  5
4E
330
1F
100
AcDbEntity
  8
0
  6
Continuous
 62
     7
100
AcDbLine
 10
63.04116118110525
 20
91.88235476433601
 30
0.0
 11
149.0411611811053
 21
91.88235476433601
 31
0.0
  0
LINE
  5
4F
330
1F
100
AcDbEntity
  8
0
  6
Continuous
 62
     7
100
AcDbLine
 10
57.04116118110525
 20
91.88235476433601
 30
0.0
 11
57.04116118110525
 21
88.38235476433601
 31
0.0
  0
LINE
  5
50
330
1F
100
AcDbEntity
  8
0
  6
Continuous
 62
     7
100
AcDbLine
 10
58.04116118110525
 20
91.88235476433601
 30
0.0
 11
57.04116118110525
 21
91.88235476433601
 31
0.0
  0
LINE
  5
51
330
1F
100
AcDbEntity
  8
0
  6
Continuous
 62
     7
100
AcDbLine
 10
58.04116118110525
 20
92.682354764336
 30
0.0
 11
58.04116118110525
 21
91.88235476433601
 31
0.0
  0
LINE
  5
52
330
1F
100
AcDbEntity
  8
0
  6
Continuous
 62
     7
100
AcDbLine
 10
63.04116118110525
 20
91.88235476433601
 30
0.0
 11
58.04116118110525
 21
91.88235476433601
 31
0.0
  0
LINE
  5
53
330
1F
100
AcDbEntity
  8
0
  6
Continuous
 62
     7
100
AcDbLine
 10
63.04116118110525
 20
88.38235476433601
 30
0.0
 11
57.04116118110525
 21
88.38235476433601
 31
0.0
  0
LINE
  5
54
330
1F
100
AcDbEntity
  8
0
  6
Continuous
 62
     7
100
AcDbLine
 10
155.0411611811053
 20
88.38235476433601
 30
0.0
 11
149.0411611811053
 21
88.38235476433601
 31
0.0
  0
LINE
  5
55
330
1F
100
AcDbEntity
  8
0
  6
Continuous
 62
     7
100
AcDbLine
 10
155.0411611811053
 20
91.88235476433601
 30
0.0
 11
154.0411611811053
 21
91.88235476433601
 31
0.0
  0
LINE
  5
56
330
1F
100
AcDbEntity
  8
0
  6
Continuous
 62
     7
100
AcDbLine
 10
154.0411611811053
 20
92.682354764336
 30
0.0
 11
154.0411611811053
 21
91.88235476433601
 31
0.0
  0
LINE
  5
57
330
1F
100
AcDbEntity
  8
0
  6
Continuous
 62
     7
100
AcDbLine
 10
153.0411611811053
 20
93.682354764336
 30
0.0
 11
149.0411611811053
 21
93.682354764336
 31
0.0
  0
LINE
  5
58
330
1F
100
AcDbEntity
  8
0
  6
Continuous
 62
     7
100
AcDbLine
 10
155.0411611811053
 20
91.88235476433601
 30
0.0
 11
155.0411611811053
 21
88.38235476433601
 31
0.0
  0
LINE
  5
59
330
1F
100
AcDbEntity
  8
0
  6
Continuous
 62
     7
100
AcDbLine
 10
154.0411611811053
 20
91.88235476433601
 30
0.0
 11
149.0411611811053
 21
91.88235476433601
 31
0.0
  0
LINE
  5
5A
330
1F
100
AcDbEntity
  8
0
  6
Continuous
 62
     7
100
AcDbLine
 10
149.0411611811053
 20
93.682354764336
 30
0.0
 11
146.2911613151557
 21
93.682354764336
 31
0.0
  0
LINE
  5
5B
330
1F
100
AcDbEntity
  8
0
  6
Continuous
 62
     7
100
AcDbLine
 10
63.49224826608975
 20
117.2823547643342
 30
0.0
 11
63.49224826484885
 21
117.143663771099
 31
0.0
  0
LINE
  5
5C
330
1F
100
AcDbEntity
  8
0
  6
Continuous
 62
     7
100
AcDbLine
 10
71.70504805041571
 20
119.2189101419969
 30
0.0
 11
71.82536640956937
 21
119.146976161963
 31
0.0
  0
LINE
  5
5D
330
1F
100
AcDbEntity
  8
0
  6
Continuous
 62
     7
100
AcDbLine
 10
98.54116118110551
 20
121.560108610422
 30
0.0
 11
98.54116118110551
 21
120.7323547643335
 31
0.0
  0
LINE
  5
5E
330
1F
100
AcDbEntity
  8
0
  6
Continuous
 62
     7
100
AcDbLine
 10
63.87449066356521
 20
116.8365926700028
 30
0.0
 11
148.2078315533893
 21
116.8365926700062
 31
0.0
  0
LINE
  5
5F
330
1F
100
AcDbEntity
  8
0
  6
Continuous
 62
     7
100
AcDbLine
 10
64.24883356557496
 20
117.1994064125154
 30
0.0
 11
64.23675138990711
 21
117.2991628175414
 31
0.0
  0
LINE
  5
60
330
1F
100
AcDbEntity
  8
0
  6
Continuous
 62
     7
100
AcDbLine
 10
63.49224826608975
 20
117.2823547643342
 30
0.0
 11
64.23878712737587
 21
117.2823547643342
 31
0.0
  0
LINE
  5
61
330
1F
100
AcDbEntity
  8
0
  6
Continuous
 62
     7
100
AcDbLine
 10
147.8435352348351
 20
117.2823547643342
 30
0.0
 11
148.5900740961213
 21
117.2823547643342
 31
0.0
  0
LINE
  5
62
330
1F
100
AcDbEntity
  8
0
  6
Continuous
 62
     7
100
AcDbLine
 10
65.88786519149232
 20
117.4331363192708
 30
0.0
 11
65.92387655269067
 21
117.3353215591975
 31
0.0
  0
LINE
  5
63
330
1F
100
AcDbEntity
  8
0
  6
Continuous
 62
     7
100
AcDbLine
 10
65.88786519149232
 20
117.4331363192708
 30
0.0
 11
146.1944571707186
 21
117.4331363192708
 31
0.0
  0
LINE
  5
64
330
1F
100
AcDbEntity
  8
0
  6
Continuous
 62
     7
100
AcDbLine
 10
147.833488796636
 20
117.1994064125154
 30
0.0
 11
64.24883356557496
 21
117.1994064125154
 31
0.0
  0
LINE
  5
65
330
1F
100
AcDbEntity
  8
0
  6
Continuous
 62
     7
100
AcDbLine
 10
98.54116118110551
 20
119.8727244370541
 30
0.0
 11
72.9572039039059
 21
119.8727244370539
 31
0.0
  0
LINE
  5
66
330
1F
100
AcDbEntity
  8
0
  6
Continuous
 62
     7
100
AcDbLine
 10
98.5411611810747
 20
120.2323547643343
 30
0.0
 11
98.54116118110551
 21
119.8727244370541
 31
0.0
  0
LINE
  5
67
330
1F
100
AcDbEntity
  8
0
  6
Continuous
 62
     7
100
AcDbLine
 10
98.84116118110546
 20
119.9323547643342
 30
0.0
 11
113.2411611811056
 21
119.9323547643342
 31
0.0
  0
LINE
  5
68
330
1F
100
AcDbEntity
  8
0
  6
Continuous
 62
     7
100
AcDbLine
 10
98.54116118110551
 20
120.6823547643335
 30
0.0
 11
98.54116118110551
 21
120.7323547643335
 31
0.0
  0
LINE
  5
69
330
1F
100
AcDbEntity
  8
0
  6
Continuous
 62
     7
100
AcDbLine
 10
73.90308126880348
 20
120.6823547643335
 30
0.0
 11
98.54116118110551
 21
120.6823547643335
 31
0.0
  0
LINE
  5
6A
330
1F
100
AcDbEntity
  8
0
  6
Continuous
 62
     7
100
AcDbLine
 10
113.5411611811055
 20
120.6823547643334
 30
0.0
 11
113.5411611811055
 21
120.7323547643335
 31
0.0
  0
LINE
  5
6B
330
1F
100
AcDbEntity
  8
0
  6
Continuous
 62
     7
100
AcDbLine
 10
73.75308126880361
 20
120.7323547643336
 30
0.0
 11
73.90308126880348
 21
120.6823547643335
 31
0.0
  0
LINE
  5
6C
330
1F
100
AcDbEntity
  8
0
  6
Continuous
 62
     7
100
AcDbLine
 10
73.75308126880361
 20
120.7323547643336
 30
0.0
 11
98.54116118110551
 21
120.7323547643335
 31
0.0
  0
LINE
  5
6D
330
1F
100
AcDbEntity
  8
0
  6
Continuous
 62
     7
100
AcDbLine
 10
98.54116118110551
 20
120.6823547643335
 30
0.0
 11
98.5411611810747
 21
120.2323547643343
 31
0.0
  0
LINE
  5
6E
330
1F
100
AcDbEntity
  8
0
  6
Continuous
 62
     7
100
AcDbLine
 10
67.54985512696783
 20
117.6045064188325
 30
0.0
 11
67.49061550042256
 21
117.698475680911
 31
0.0
  0
LINE
  5
6F
330
1F
100
AcDbEntity
  8
0
  6
Continuous
 62
     7
100
AcDbLine
 10
69.0138066050356
 20
118.0900163736072
 30
0.0
 11
69.09512146498105
 21
118.0017216143213
 31
0.0
  0
LINE
  5
70
330
1F
100
AcDbEntity
  8
0
  6
Continuous
 62
     7
100
AcDbLine
 10
71.70504805041571
 20
119.2189101419969
 30
0.0
 11
140.3772743117954
 21
119.2189101419969
 31
0.0
  0
LINE
  5
71
330
1F
100
AcDbEntity
  8
0
  6
Continuous
 62
     7
100
AcDbLine
 10
70.52959871517533
 20
118.5192358037092
 30
0.0
 11
70.4277913230843
 21
118.6001375031467
 31
0.0
  0
LINE
  5
72
330
1F
100
AcDbEntity
  8
0
  6
Continuous
 62
     7
100
AcDbLine
 10
72.9572039039059
 20
119.8727244370539
 30
0.0
 11
72.82071643769007
 21
119.9342905845865
 31
0.0
  0
LINE
  5
73
330
1F
100
AcDbEntity
  8
0
  6
Continuous
 62
     7
100
AcDbLine
 10
70.52959871517533
 20
118.5192358037092
 30
0.0
 11
141.5527236470358
 21
118.5192358037092
 31
0.0
  0
LINE
  5
74
330
1F
100
AcDbEntity
  8
0
  6
Continuous
 62
     7
100
AcDbLine
 10
71.82536640956937
 20
119.146976161963
 30
0.0
 11
140.2569559526417
 21
119.146976161963
 31
0.0
  0
LINE
  5
75
330
1F
100
AcDbEntity
  8
0
  6
Continuous
 62
     7
100
AcDbLine
 10
65.92387655269067
 20
117.3353215591975
 30
0.0
 11
146.1584458095203
 21
117.3353215591975
 31
0.0
  0
LINE
  5
76
330
1F
100
AcDbEntity
  8
0
  6
Continuous
 62
     7
100
AcDbLine
 10
67.54985512696783
 20
117.6045064188325
 30
0.0
 11
144.5324672352433
 21
117.6045064188326
 31
0.0
  0
LINE
  5
77
330
1F
100
AcDbEntity
  8
0
  6
Continuous
 62
     7
100
AcDbLine
 10
69.09512146498105
 20
118.0017216143213
 30
0.0
 11
142.98720089723
 21
118.0017216143213
 31
0.0
  0
LINE
  5
78
330
1F
100
AcDbEntity
  8
0
  6
Continuous
 62
     7
100
AcDbLine
 10
69.0138066050356
 20
118.0900163736072
 30
0.0
 11
143.0685157571754
 21
118.0900163736072
 31
0.0
  0
LINE
  5
79
330
1F
100
AcDbEntity
  8
0
  6
Continuous
 62
     7
100
AcDbLine
 10
139.1251184583052
 20
119.8727244370539
 30
0.0
 11
139.2616059245211
 21
119.9342905845865
 31
0.0
  0
LINE
  5
7A
330
1F
100
AcDbEntity
  8
0
  6
Continuous
 62
     7
100
AcDbLine
 10
140.3772743117954
 20
119.2189101419969
 30
0.0
 11
140.2569559526417
 21
119.146976161963
 31
0.0
  0
LINE
  5
7B
330
1F
100
AcDbEntity
  8
0
  6
Continuous
 62
     7
100
AcDbLine
 10
141.5527236470358
 20
118.5192358037092
 30
0.0
 11
141.6545310391268
 21
118.6001375031467
 31
0.0
  0
LINE
  5
7C
330
1F
100
AcDbEntity
  8
0
  6
Continuous
 62
     7
100
AcDbLine
 10
146.1944571707186
 20
117.4331363192708
 30
0.0
 11
146.1584458095203
 21
117.3353215591975
 31
0.0
  0
LINE
  5
7D
330
1F
100
AcDbEntity
  8
0
  6
Continuous
 62
     7
100
AcDbLine
 10
147.833488796636
 20
117.1994064125154
 30
0.0
 11
147.8455709723041
 21
117.2991628175414
 31
0.0
  0
LINE
  5
7E
330
1F
100
AcDbEntity
  8
0
  6
Continuous
 62
     7
100
AcDbLine
 10
144.5324672352433
 20
117.6045064188326
 30
0.0
 11
144.5917068617885
 21
117.698475680911
 31
0.0
  0
LINE
  5
7F
330
1F
100
AcDbEntity
  8
0
  6
Continuous
 62
     7
100
AcDbLine
 10
143.0685157571754
 20
118.0900163736072
 30
0.0
 11
142.98720089723
 21
118.0017216143213
 31
0.0
  0
LINE
  5
80
330
1F
100
AcDbEntity
  8
0
  6
Continuous
 62
     7
100
AcDbLine
 10
113.5411611811055
 20
120.7323547643335
 30
0.0
 11
138.3292410934074
 21
120.7323547643336
 31
0.0
  0
LINE
  5
81
330
1F
100
AcDbEntity
  8
0
  6
Continuous
 62
     7
100
AcDbLine
 10
113.5411611811055
 20
119.8727244370541
 30
0.0
 11
139.1251184583052
 21
119.8727244370539
 31
0.0
  0
LINE
  5
82
330
1F
100
AcDbEntity
  8
0
  6
Continuous
 62
     7
100
AcDbLine
 10
113.5411611811055
 20
120.6823547643334
 30
0.0
 11
138.1792410934075
 21
120.6823547643334
 31
0.0
  0
LINE
  5
83
330
1F
100
AcDbEntity
  8
0
  6
Continuous
 62
     7
100
AcDbLine
 10
113.5411611811055
 20
120.2323547643343
 30
0.0
 11
113.5411611811055
 21
119.8727244370541
 31
0.0
  0
LINE
  5
84
330
1F
100
AcDbEntity
  8
0
  6
Continuous
 62
     7
100
AcDbLine
 10
113.5411611811055
 20
120.6823547643334
 30
0.0
 11
113.5411611811055
 21
120.2323547643343
 31
0.0
  0
LINE
  5
85
330
1F
100
AcDbEntity
  8
0
  6
Continuous
 62
     7
100
AcDbLine
 10
148.5900740961213
 20
117.1436637843739
 30
0.0
 11
148.5900740961213
 21
117.2823547643342
 31
0.0
  0
LINE
  5
86
330
1F
100
AcDbEntity
  8
0
  6
Continuous
 62
     7
100
AcDbLine
 10
113.5411611811055
 20
121.5601086104221
 30
0.0
 11
113.5411611811055
 21
120.7323547643335
 31
0.0
  0
LINE
  5
87
330
1F
100
AcDbEntity
  8
0
  6
Continuous
 62
     7
100
AcDbLine
 10
119.3661885175
 20
126.6823547643338
 30
0.0
 11
113.5411611811055
 21
126.6823547643337
 31
0.0
  0
LINE
  5
88
330
1F
100
AcDbEntity
  8
0
  6
Continuous
 62
     7
100
AcDbLine
 10
113.5411611811055
 20
126.6823547643337
 30
0.0
 11
113.5411611811052
 21
126.3454737249582
 31
0.0
  0
LINE
  5
89
330
1F
100
AcDbEntity
  8
0
  6
Continuous
 62
     7
100
AcDbLine
 10
113.5411611811055
 20
121.5601086104221
 30
0.0
 11
137.4377342849368
 21
121.560108610422
 31
0.0
  0
LINE
  5
8A
330
1F
100
AcDbEntity
  8
0
  6
Continuous
 62
     7
100
AcDbLine
 10
120.6161885175
 20
126.6823547643335
 30
0.0
 11
121.8873223028284
 21
126.6823547643335
 31
0.0
  0
LINE
  5
8B
330
1F
100
AcDbEntity
  8
0
  6
Continuous
 62
     7
100
AcDbLine
 10
120.6161885175001
 20
129.1823547643335
 30
0.0
 11
124.5411611811052
 21
129.1823547643338
 31
0.0
  0
LINE
  5
8C
330
1F
100
AcDbEntity
  8
0
  6
Continuous
 62
     7
100
AcDbLine
 10
120.6161885175
 20
126.6823547643335
 30
0.0
 11
119.3661885175
 21
126.6823547643338
 31
0.0
  0
LINE
  5
8D
330
1F
100
AcDbEntity
  8
0
  6
Continuous
 62
     7
100
AcDbLine
 10
120.6161885175001
 20
129.1823547643335
 30
0.0
 11
119.3661885175001
 21
129.1823547643334
 31
0.0
  0
LINE
  5
8E
330
1F
100
AcDbEntity
  8
0
  6
Continuous
 62
     7
100
AcDbLine
 10
137.5983272393438
 20
121.5975692697636
 30
0.0
 11
137.4377342849368
 21
121.560108610422
 31
0.0
  0
LINE
  5
8F
330
1F
100
AcDbEntity
  8
0
  6
Continuous
 62
     7
100
AcDbLine
 10
136.7935601744864
 20
123.4611083677866
 30
0.0
 11
136.6213039292848
 21
123.4506555214599
 31
0.0
  0
LINE
  5
90
330
1F
100
AcDbEntity
  8
0
  6
Continuous
 62
     7
100
AcDbLine
 10
136.5622712703
 20
124.4266512412509
 30
0.0
 11
136.7353708392016
 21
124.4231612915807
 31
0.0
  0
LINE
  5
91
330
1F
100
AcDbEntity
  8
0
  6
Continuous
 62
     7
100
AcDbLine
 10
125.0411611811052
 20
129.1823547643338
 30
0.0
 11
126.0366027522086
 21
129.5446658661667
 31
0.0
  0
LINE
  5
92
330
1F
100
AcDbEntity
  8
0
  6
Continuous
 62
     7
100
AcDbLine
 10
127.6137250474411
 20
130.1186914374288
 30
0.0
 11
127.3807257479609
 21
130.0338866278133
 31
0.0
  0
LINE
  5
93
330
1F
100
AcDbEntity
  8
0
  6
Continuous
 62
     7
100
AcDbLine
 10
127.6137250474411
 20
130.1186914374288
 30
0.0
 11
128.873392699461
 21
130.5771729678322
 31
0.0
  0
LINE
  5
94
330
1F
100
AcDbEntity
  8
0
  6
Continuous
 62
     7
100
AcDbLine
 10
124.5411611811052
 20
129.1823547643338
 30
0.0
 11
125.0411611811052
 21
129.1823547643338
 31
0.0
  0
LINE
  5
95
330
1F
100
AcDbEntity
  8
0
  6
Continuous
 62
     7
100
AcDbLine
 10
139.6690889276462
 20
128.8662690088457
 30
0.0
 11
124.9461840408476
 21
128.8662690088455
 31
0.0
  0
LINE
  5
96
330
1F
100
AcDbEntity
  8
0
  6
Continuous
 62
     7
100
AcDbLine
 10
123.9748961760013
 20
128.0967050886289
 30
0.0
 11
138.6276947140652
 21
128.0967050886289
 31
0.0
  0
LINE
  5
97
330
1F
100
AcDbEntity
  8
0
  6
Continuous
 62
     7
100
AcDbLine
 10
125.1172428759339
 20
128.7993559482098
 30
0.0
 11
139.7978053871573
 21
128.7993559482098
 31
0.0
  0
LINE
  5
98
330
1F
100
AcDbEntity
  8
0
  6
Continuous
 62
     7
100
AcDbLine
 10
137.148293643759
 20
126.3454737249582
 30
0.0
 11
137.3130214644681
 21
126.3145720255206
 31
0.0
  0
LINE
  5
99
330
1F
100
AcDbEntity
  8
0
  6
Continuous
 62
     7
100
AcDbLine
 10
138.7712882337701
 20
128.0407857982818
 30
0.0
 11
138.6276947140652
 21
128.0967050886289
 31
0.0
  0
LINE
  5
9A
330
1F
100
AcDbEntity
  8
0
  6
Continuous
 62
     7
100
AcDbLine
 10
137.7819424172936
 20
127.2509527918572
 30
0.0
 11
137.9376181126665
 21
127.2071156771783
 31
0.0
  0
LINE
  5
9B
330
1F
100
AcDbEntity
  8
0
  6
Continuous
 62
     7
100
AcDbLine
 10
139.6690889276462
 20
128.8662690088457
 30
0.0
 11
139.7978053871573
 21
128.7993559482098
 31
0.0
  0
LINE
  5
9C
330
1F
100
AcDbEntity
  8
0
  6
Continuous
 62
     7
100
AcDbLine
 10
127.3807257479609
 20
130.0338866278133
 30
0.0
 11
142.3460961754338
 21
130.0338866278133
 31
0.0
  0
LINE
  5
9D
330
1F
100
AcDbEntity
  8
0
  6
Continuous
 62
     7
100
AcDbLine
 10
126.0366027522086
 20
129.5446658661667
 30
0.0
 11
140.8858555042378
 21
129.5446658661667
 31
0.0
  0
LINE
  5
9E
330
1F
100
AcDbEntity
  8
0
  6
Continuous
 62
     7
100
AcDbLine
 10
140.997189584083
 20
129.4680614218548
 30
0.0
 11
140.8858555042378
 21
129.5446658661667
 31
0.0
  0
LINE
  5
9F
330
1F
100
AcDbEntity
  8
0
  6
Continuous
 62
     7
100
AcDbLine
 10
142.2543114664777
 20
130.1186914374288
 30
0.0
 11
142.3460961754338
 21
130.0338866278133
 31
0.0
  0
LINE
  5
A0
330
1F
100
AcDbEntity
  8
0
  6
Continuous
 62
     7
100
AcDbLine
 10
143.8182702287672
 20
130.4858184220679
 30
0.0
 11
143.7478213756565
 21
130.5771729678322
 31
0.0
  0
LINE
  5
A1
330
1F
100
AcDbEntity
  8
0
  6
Continuous
 62
     7
100
AcDbLine
 10
127.6137250474411
 20
130.1186914374288
 30
0.0
 11
142.2543114664777
 21
130.1186914374288
 31
0.0
  0
LINE
  5
A2
330
1F
100
AcDbEntity
  8
0
  6
Continuous
 62
     7
100
AcDbLine
 10
123.1291438792297
 20
127.2509527918572
 30
0.0
 11
137.7819424172936
 21
127.2509527918572
 31
0.0
  0
LINE
  5
A3
330
1F
100
AcDbEntity
  8
0
  6
Continuous
 62
     7
100
AcDbLine
 10
123.2848195746029
 20
127.2071156771783
 30
0.0
 11
137.9376181126665
 21
127.2071156771783
 31
0.0
  0
LINE
  5
A4
330
1F
100
AcDbEntity
  8
0
  6
Continuous
 62
     7
100
AcDbLine
 10
126.0366027522086
 20
129.5446658661667
 30
0.0
 11
127.3807257479609
 21
130.0338866278133
 31
0.0
  0
LINE
  5
A5
330
1F
100
AcDbEntity
  8
0
  6
Continuous
 62
     7
100
AcDbLine
 10
100.8915925544038
 20
123.2204401216807
 30
0.0
 11
105.9419120134119
 21
120.3337183548102
 31
0.0
  0
LINE
  5
A6
330
1F
100
AcDbEntity
  8
0
  6
Continuous
 62
     7
100
AcDbLine
 10
106.0411611811071
 20
120.5073547643301
 30
0.0
 11
101.1425614450641
 21
123.3073547643302
 31
0.0
  0
LINE
  5
A7
330
1F
100
AcDbEntity
  8
0
  6
Continuous
 62
     7
100
AcDbLine
 10
110.9396515473791
 20
123.3073547643301
 30
0.0
 11
106.0411611811071
 21
120.5073547643301
 31
0.0
  0
LINE
  5
A8
330
1F
100
AcDbEntity
  8
0
  6
Continuous
 62
     7
100
AcDbLine
 10
105.9411056717822
 20
121.3708244912567
 30
0.0
 11
104.6411611811053
 21
122.1138622510299
 31
0.0
  0
LINE
  5
A9
330
1F
100
AcDbEntity
  8
0
  6
Continuous
 62
     7
100
AcDbLine
 10
104.4412721997088
 20
121.7673880166107
 30
0.0
 11
105.7412166904087
 21
121.0243502568243
 31
0.0
  0
LINE
  5
AA
330
1F
100
AcDbEntity
  8
0
  6
Continuous
 62
     7
100
AcDbLine
 10
107.0411611811052
 20
125.0741517785641
 30
0.0
 11
107.0411611811055
 21
121.5405577500948
 31
0.0
  0
LINE
  5
AB
330
1F
100
AcDbEntity
  8
0
  6
Continuous
 62
     7
100
AcDbLine
 10
106.6411611811053
 20
124.32774161705
 30
0.0
 11
106.641161181105
 21
121.5405577500904
 31
0.0
  0
LINE
  5
AC
330
1F
100
AcDbEntity
  8
0
  6
Continuous
 62
     7
100
AcDbLine
 10
107.7411056717951
 20
121.8246043739008
 30
0.0
 11
108.5411056718006
 21
122.2818543193591
 31
0.0
  0
LINE
  5
AD
330
1F
100
AcDbEntity
  8
0
  6
Continuous
 62
     7
100
AcDbLine
 10
108.3412166895603
 20
122.6283285532914
 30
0.0
 11
107.8411611811052
 21
122.3425301242665
 31
0.0
  0
LINE
  5
AE
330
1F
100
AcDbEntity
  8
0
  6
Continuous
 62
     7
100
AcDbLine
 10
105.0411611811052
 20
125.0741517785641
 30
0.0
 11
105.0411611811048
 21
122.4550914365692
 31
0.0
  0
LINE
  5
AF
330
1F
100
AcDbEntity
  8
0
  6
Continuous
 62
     7
100
AcDbLine
 10
105.4411611811033
 20
124.3277416170489
 30
0.0
 11
105.4411611811056
 21
122.4550914365692
 31
0.0
  0
LINE
  5
B0
330
1F
100
AcDbEntity
  8
0
  6
Continuous
 62
     7
100
AcDbLine
 10
107.8411611811052
 20
123.1073547643335
 30
0.0
 11
107.8411611811052
 21
122.3425301242665
 31
0.0
  0
LINE
  5
B1
330
1F
100
AcDbEntity
  8
0
  6
Continuous
 62
     7
100
AcDbLine
 10
107.4411611811054
 20
124.6168680375522
 30
0.0
 11
107.4411611811051
 21
121.9978414911146
 31
0.0
  0
LINE
  5
B2
330
1F
100
AcDbEntity
  8
0
  6
Continuous
 62
     7
100
AcDbLine
 10
104.6411611811053
 20
124.6211565536353
 30
0.0
 11
104.6411611811053
 21
122.1138622510299
 31
0.0
  0
LINE
  5
B3
330
1F
100
AcDbEntity
  8
0
  6
Continuous
 62
     7
100
AcDbLine
 10
103.4411611811054
 20
124.1596180920969
 30
0.0
 11
103.4411611811049
 21
122.4550914365692
 31
0.0
  0
LINE
  5
B4
330
1F
100
AcDbEntity
  8
0
  6
Continuous
 62
     7
100
AcDbLine
 10
104.2411611811052
 20
124.6211565536367
 30
0.0
 11
104.2411611811052
 21
122.1138622510299
 31
0.0
  0
LINE
  5
B5
330
1F
100
AcDbEntity
  8
0
  6
Continuous
 62
     7
100
AcDbLine
 10
103.8411611811052
 20
124.1596180920969
 30
0.0
 11
103.8411611811055
 21
122.455091436569
 31
0.0
  0
LINE
  5
B6
330
1F
100
AcDbEntity
  8
0
  6
Continuous
 62
     7
100
AcDbLine
 10
98.54116118110528
 20
122.4889014951359
 30
0.0
 11
98.54116118110551
 21
121.560108610422
 31
0.0
  0
LINE
  5
B7
330
1F
100
AcDbEntity
  8
0
  6
Continuous
 62
     7
100
AcDbLine
 10
74.6445880772742
 20
121.560108610422
 30
0.0
 11
98.54116118110551
 21
121.560108610422
 31
0.0
  0
LINE
  5
B8
330
1F
100
AcDbEntity
  8
0
  6
Continuous
 62
     7
100
AcDbLine
 10
113.5411611811052
 20
122.4889014951359
 30
0.0
 11
113.5411611811055
 21
121.5601086104221
 31
0.0
  0
LINE
  5
B9
330
1F
100
AcDbEntity
  8
0
  6
Continuous
 62
     7
100
AcDbLine
 10
74.48399512286733
 20
121.5975692697636
 30
0.0
 11
74.6445880772742
 21
121.560108610422
 31
0.0
  0
LINE
  5
BA
330
1F
100
AcDbEntity
  8
0
  6
Continuous
 62
     7
100
AcDbLine
 10
98.54116118110528
 20
122.5130936846958
 30
0.0
 11
98.54116118110528
 21
122.4889014951359
 31
0.0
  0
LINE
  5
BB
330
1F
100
AcDbEntity
  8
0
  6
Continuous
 62
     7
100
AcDbLine
 10
75.1672917427424
 20
122.4889014951357
 30
0.0
 11
74.99923159311459
 21
122.5130936846958
 31
0.0
  0
LINE
  5
BC
330
1F
100
AcDbEntity
  8
0
  6
Continuous
 62
     7
100
AcDbLine
 10
113.5411611811052
 20
122.4889014951359
 30
0.0
 11
113.5411611811052
 21
122.5130936846958
 31
0.0
  0
LINE
  5
BD
330
1F
100
AcDbEntity
  8
0
  6
Continuous
 62
     7
100
AcDbLine
 10
75.28876218772461
 20
123.4611083677866
 30
0.0
 11
75.4610184329265
 21
123.4506555214599
 31
0.0
  0
LINE
  5
BE
330
1F
100
AcDbEntity
  8
0
  6
Continuous
 62
     7
100
AcDbLine
 10
113.5411611811052
 20
123.4506555214599
 30
0.0
 11
136.6213039292848
 21
123.4506555214599
 31
0.0
  0
LINE
  5
BF
330
1F
100
AcDbEntity
  8
0
  6
Continuous
 62
     7
100
AcDbLine
 10
107.8411611811052
 20
123.1073547643335
 30
0.0
 11
108.4411611811054
 21
123.1073547643335
 31
0.0
  0
LINE
  5
C0
330
1F
100
AcDbEntity
  8
0
  6
Continuous
 62
     7
100
AcDbLine
 10
113.5411611811055
 20
124.4266512412509
 30
0.0
 11
136.5622712703
 21
124.4266512412509
 31
0.0
  0
LINE
  5
C1
330
1F
100
AcDbEntity
  8
0
  6
Continuous
 62
     7
100
AcDbLine
 10
98.54116118110528
 20
125.397892008002
 30
0.0
 11
98.54116118110528
 21
125.3805271902354
 31
0.0
  0
LINE
  5
C2
330
1F
100
AcDbEntity
  8
0
  6
Continuous
 62
     7
100
AcDbLine
 10
107.8411611811033
 20
124.2721812468362
 30
0.0
 11
107.8411611811033
 21
123.5073547643337
 31
0.0
  0
LINE
  5
C3
330
1F
100
AcDbEntity
  8
0
  6
Continuous
 62
     7
100
AcDbLine
 10
107.8411611811033
 20
123.5073547643337
 30
0.0
 11
108.4411611811054
 21
123.5073547643337
 31
0.0
  0
LINE
  5
C4
330
1F
100
AcDbEntity
  8
0
  6
Continuous
 62
     7
100
AcDbLine
 10
98.54116118110528
 20
124.4266512412509
 30
0.0
 11
98.54116118110528
 21
123.4506555214599
 31
0.0
  0
LINE
  5
C5
330
1F
100
AcDbEntity
  8
0
  6
Continuous
 62
     7
100
AcDbLine
 10
113.5411611811052
 20
125.3805271902354
 30
0.0
 11
113.5411611811055
 21
124.4266512412509
 31
0.0
  0
LINE
  5
C6
330
1F
100
AcDbEntity
  8
0
  6
Continuous
 62
     7
100
AcDbLine
 10
113.5411611811055
 20
124.4266512412509
 30
0.0
 11
113.5411611811052
 21
123.4506555214599
 31
0.0
  0
LINE
  5
C7
330
1F
100
AcDbEntity
  8
0
  6
Continuous
 62
     7
100
AcDbLine
 10
107.8411611811033
 20
124.2721812468362
 30
0.0
 11
108.3412166912585
 21
123.9863471788393
 31
0.0
  0
LINE
  5
C8
330
1F
100
AcDbEntity
  8
0
  6
Continuous
 62
     7
100
AcDbLine
 10
108.5411056717954
 20
124.3328214137543
 30
0.0
 11
107.7411056718042
 21
124.7901051547612
 31
0.0
  0
LINE
  5
C9
330
1F
100
AcDbEntity
  8
0
  6
Continuous
 62
     7
100
AcDbLine
 10
106.1277637214838
 20
123.438511132509
 30
0.0
 11
106.6411611811053
 21
124.32774161705
 31
0.0
  0
LINE
  5
CA
330
1F
100
AcDbEntity
  8
0
  6
Continuous
 62
     7
100
AcDbLine
 10
75.1672917427424
 20
122.4889014951357
 30
0.0
 11
98.54116118110528
 21
122.4889014951359
 31
0.0
  0
LINE
  5
CB
330
1F
100
AcDbEntity
  8
0
  6
Continuous
 62
     7
100
AcDbLine
 10
113.5411611811052
 20
122.4889014951359
 30
0.0
 11
136.9150306194686
 21
122.4889014951357
 31
0.0
  0
LINE
  5
CC
330
1F
100
AcDbEntity
  8
0
  6
Continuous
 62
     7
100
AcDbLine
 10
74.99923159311459
 20
122.5130936846958
 30
0.0
 11
98.54116118110528
 21
122.5130936846958
 31
0.0
  0
LINE
  5
CD
330
1F
100
AcDbEntity
  8
0
  6
Continuous
 62
     7
100
AcDbLine
 10
113.5411611811052
 20
122.5130936846958
 30
0.0
 11
137.0830907690964
 21
122.5130936846958
 31
0.0
  0
LINE
  5
CE
330
1F
100
AcDbEntity
  8
0
  6
Continuous
 62
     7
100
AcDbLine
 10
113.5411611811052
 20
123.4506555214599
 30
0.0
 11
113.5411611811052
 21
122.5130936846958
 31
0.0
  0
LINE
  5
CF
330
1F
100
AcDbEntity
  8
0
  6
Continuous
 62
     7
100
AcDbLine
 10
75.52005109191111
 20
124.4266512412509
 30
0.0
 11
98.54116118110528
 21
124.4266512412509
 31
0.0
  0
LINE
  5
D0
330
1F
100
AcDbEntity
  8
0
  6
Continuous
 62
     7
100
AcDbLine
 10
98.54116118110528
 20
125.3805271902354
 30
0.0
 11
98.54116118110528
 21
124.4266512412509
 31
0.0
  0
LINE
  5
D1
330
1F
100
AcDbEntity
  8
0
  6
Continuous
 62
     7
100
AcDbLine
 10
75.52005109191111
 20
124.4266512412509
 30
0.0
 11
75.34695152300947
 21
124.4231612915807
 31
0.0
  0
LINE
  5
D2
330
1F
100
AcDbEntity
  8
0
  6
Continuous
 62
     7
100
AcDbLine
 10
75.17266700974722
 20
125.3805271902354
 30
0.0
 11
98.54116118110528
 21
125.3805271902354
 31
0.0
  0
LINE
  5
D3
330
1F
100
AcDbEntity
  8
0
  6
Continuous
 62
     7
100
AcDbLine
 10
98.54116118110528
 20
123.4506555214599
 30
0.0
 11
98.54116118110528
 21
122.5130936846958
 31
0.0
  0
LINE
  5
D4
330
1F
100
AcDbEntity
  8
0
  6
Continuous
 62
     7
100
AcDbLine
 10
75.4610184329265
 20
123.4506555214599
 30
0.0
 11
98.54116118110528
 21
123.4506555214599
 31
0.0
  0
LINE
  5
D5
330
1F
100
AcDbEntity
  8
0
  6
Continuous
 62
     7
100
AcDbLine
 10
98.54116118110528
 20
126.3454737249582
 30
0.0
 11
98.54116118110528
 21
125.397892008002
 31
0.0
  0
LINE
  5
D6
330
1F
100
AcDbEntity
  8
0
  6
Continuous
 62
     7
100
AcDbLine
 10
74.93402871845217
 20
126.3454737249583
 30
0.0
 11
98.54116118110528
 21
126.3454737249582
 31
0.0
  0
LINE
  5
D7
330
1F
100
AcDbEntity
  8
0
  6
Continuous
 62
     7
100
AcDbLine
 10
113.5411611811052
 20
126.3454737249582
 30
0.0
 11
113.5411611811052
 21
125.397892008002
 31
0.0
  0
LINE
  5
D8
330
1F
100
AcDbEntity
  8
0
  6
Continuous
 62
     7
100
AcDbLine
 10
75.34324071613781
 20
125.397892008002
 30
0.0
 11
98.54116118110528
 21
125.397892008002
 31
0.0
  0
LINE
  5
D9
330
1F
100
AcDbEntity
  8
0
  6
Continuous
 62
     7
100
AcDbLine
 10
113.5411611811052
 20
125.397892008002
 30
0.0
 11
136.7390816460734
 21
125.397892008002
 31
0.0
  0
LINE
  5
DA
330
1F
100
AcDbEntity
  8
0
  6
Continuous
 62
     7
100
AcDbLine
 10
137.148293643759
 20
126.3454737249582
 30
0.0
 11
113.5411611811052
 21
126.3454737249582
 31
0.0
  0
LINE
  5
DB
330
1F
100
AcDbEntity
  8
0
  6
Continuous
 62
     7
100
AcDbLine
 10
105.4411611811033
 20
124.3277416170489
 30
0.0
 11
105.9545586407269
 21
123.438511132509
 31
0.0
  0
LINE
  5
DC
330
1F
100
AcDbEntity
  8
0
  6
Continuous
 62
     7
100
AcDbLine
 10
106.6679561001669
 20
125.1741517782521
 30
0.0
 11
106.0411611811032
 21
124.0885111325078
 31
0.0
  0
LINE
  5
DD
330
1F
100
AcDbEntity
  8
0
  6
Continuous
 62
     7
100
AcDbLine
 10
106.0411611811032
 20
124.0885111325078
 30
0.0
 11
105.4143662618601
 21
125.1741517785629
 31
0.0
  0
LINE
  5
DE
330
1F
100
AcDbEntity
  8
0
  6
Continuous
 62
     7
100
AcDbLine
 10
106.0411611811052
 20
126.1073547643335
 30
0.0
 11
110.9396515473791
 21
123.3073547643301
 31
0.0
  0
LINE
  5
DF
330
1F
100
AcDbEntity
  8
0
  6
Continuous
 62
     7
100
AcDbLine
 10
101.1425614450641
 20
123.3073547643302
 30
0.0
 11
106.0411611811052
 21
126.1073547643335
 31
0.0
  0
LINE
  5
E0
330
1F
100
AcDbEntity
  8
0
  6
Continuous
 62
     7
100
AcDbLine
 10
105.9419120134132
 20
126.2809911738533
 30
0.0
 11
100.8915925544059
 21
123.3942694069829
 31
0.0
  0
LINE
  5
E1
330
1F
100
AcDbEntity
  8
0
  6
Continuous
 62
     7
100
AcDbLine
 10
111.190786600074
 20
123.3941724917409
 30
0.0
 11
106.1404120190441
 21
126.2809902191476
 31
0.0
  0
LINE
  5
E2
330
1F
100
AcDbEntity
  8
0
  6
Continuous
 62
     7
100
AcDbLine
 10
106.1404120190459
 20
120.3337193095162
 30
0.0
 11
111.190786600076
 21
123.2205370369229
 31
0.0
  0
LINE
  5
E3
330
1F
100
AcDbEntity
  8
0
  6
Continuous
 62
     7
100
AcDbLine
 10
81.54620634219623
 20
131.1823547643343
 30
0.0
 11
65.06635995398096
 21
131.182354764335
 31
0.0
  0
LINE
  5
E4
330
1F
100
AcDbEntity
  8
0
  6
Continuous
 62
     7
100
AcDbLine
 10
81.54620634219623
 20
131.1823547643343
 30
0.0
 11
81.73337417185769
 21
131.1142312455251
 31
0.0
  0
LINE
  5
E5
330
1F
100
AcDbEntity
  8
0
  6
Continuous
 62
     7
100
AcDbLine
 10
64.4411611811056
 20
131.1823547643342
 30
0.0
 11
65.06635995398096
 21
131.182354764335
 31
0.0
  0
LINE
  5
E6
330
1F
100
AcDbEntity
  8
0
  6
Continuous
 62
     7
100
AcDbLine
 10
81.73337417185769
 20
131.1142312455251
 30
0.0
 11
65.09046544217165
 21
131.1142312455251
 31
0.0
  0
LINE
  5
E7
330
1F
100
AcDbEntity
  8
0
  6
Continuous
 62
     7
100
AcDbLine
 10
82.55533913231602
 20
130.8150604663084
 30
0.0
 11
82.29123465193823
 21
130.9111866359023
 31
0.0
  0
LINE
  5
E8
330
1F
100
AcDbEntity
  8
0
  6
Continuous
 62
     7
100
AcDbLine
 10
66.69726481150235
 20
130.8150604663084
 30
0.0
 11
82.55533913231602
 21
130.8150604663084
 31
0.0
  0
LINE
  5
E9
330
1F
100
AcDbEntity
  8
0
  6
Continuous
 62
     7
100
AcDbLine
 10
81.73337417185769
 20
131.1142312455251
 30
0.0
 11
82.29123465193823
 21
130.9111866359023
 31
0.0
  0
LINE
  5
EA
330
1F
100
AcDbEntity
  8
0
  6
Continuous
 62
     7
100
AcDbLine
 10
82.29123465193823
 20
130.9111866359023
 30
0.0
 11
66.74500660197646
 21
130.9111866359023
 31
0.0
  0
LINE
  5
EB
330
1F
100
AcDbEntity
  8
0
  6
Continuous
 62
     7
100
AcDbLine
 10
66.74500660197646
 20
130.9111866359023
 30
0.0
 11
66.69726481150235
 21
130.8150604663084
 31
0.0
  0
LINE
  5
EC
330
1F
100
AcDbEntity
  8
0
  6
Continuous
 62
     7
100
AcDbLine
 10
82.55533913231602
 20
130.8150604663084
 30
0.0
 11
83.20892966274994
 21
130.5771729678322
 31
0.0
  0
LINE
  5
ED
330
1F
100
AcDbEntity
  8
0
  6
Continuous
 62
     7
100
AcDbLine
 10
68.33450098655464
 20
130.5771729678322
 30
0.0
 11
83.20892966274994
 21
130.5771729678322
 31
0.0
  0
LINE
  5
EE
330
1F
100
AcDbEntity
  8
0
  6
Continuous
 62
     7
100
AcDbLine
 10
68.2640521334439
 20
130.4858184220679
 30
0.0
 11
68.33450098655464
 21
130.5771729678322
 31
0.0
  0
LINE
  5
EF
330
1F
100
AcDbEntity
  8
0
  6
Continuous
 62
     7
100
AcDbLine
 10
83.20892966274994
 20
130.5771729678322
 30
0.0
 11
84.46859731476968
 21
130.1186914374288
 31
0.0
  0
LINE
  5
F0
330
1F
100
AcDbEntity
  8
0
  6
Continuous
 62
     7
100
AcDbLine
 10
69.73622618677734
 20
130.0338866278133
 30
0.0
 11
84.70159661424981
 21
130.0338866278133
 31
0.0
  0
LINE
  5
F1
330
1F
100
AcDbEntity
  8
0
  6
Continuous
 62
     7
100
AcDbLine
 10
69.8280108957336
 20
130.1186914374288
 30
0.0
 11
69.73622618677734
 21
130.0338866278133
 31
0.0
  0
LINE
  5
F2
330
1F
100
AcDbEntity
  8
0
  6
Continuous
 62
     7
100
AcDbLine
 10
72.28451697505386
 20
128.7993559482098
 30
0.0
 11
86.96507948626083
 21
128.7993559481962
 31
0.0
  0
LINE
  5
F3
330
1F
100
AcDbEntity
  8
0
  6
Continuous
 62
     7
100
AcDbLine
 10
71.1964668579734
 20
129.5446658661667
 30
0.0
 11
86.04571961000204
 21
129.5446658661667
 31
0.0
  0
LINE
  5
F4
330
1F
100
AcDbEntity
  8
0
  6
Continuous
 62
     7
100
AcDbLine
 10
72.41323343456492
 20
128.8662690088457
 30
0.0
 11
87.13613832136389
 21
128.8662690088451
 31
0.0
  0
LINE
  5
F5
330
1F
100
AcDbEntity
  8
0
  6
Continuous
 62
     7
100
AcDbLine
 10
71.08513277812813
 20
129.4680614218547
 30
0.0
 11
71.1964668579734
 21
129.5446658661667
 31
0.0
  0
LINE
  5
F6
330
1F
100
AcDbEntity
  8
0
  6
Continuous
 62
     7
100
AcDbLine
 10
72.41323343456492
 20
128.8662690088457
 30
0.0
 11
72.28451697505386
 21
128.7993559482098
 31
0.0
  0
LINE
  5
F7
330
1F
100
AcDbEntity
  8
0
  6
Continuous
 62
     7
100
AcDbLine
 10
73.31103412844107
 20
128.0407857982818
 30
0.0
 11
73.45462764814579
 21
128.0967050886289
 31
0.0
  0
LINE
  5
F8
330
1F
100
AcDbEntity
  8
0
  6
Continuous
 62
     7
100
AcDbLine
 10
69.8280108957336
 20
130.1186914374288
 30
0.0
 11
84.46859731476968
 21
130.1186914374288
 31
0.0
  0
LINE
  5
F9
330
1F
100
AcDbEntity
  8
0
  6
Continuous
 62
     7
100
AcDbLine
 10
86.04571961000204
 20
129.5446658661667
 30
0.0
 11
87.0411611811054
 21
129.1823547643338
 31
0.0
  0
LINE
  5
FA
330
1F
100
AcDbEntity
  8
0
  6
Continuous
 62
     7
100
AcDbLine
 10
87.0411611811054
 20
129.1823547643338
 30
0.0
 11
87.5411611811054
 21
129.1823547643446
 31
0.0
  0
LINE
  5
FB
330
1F
100
AcDbEntity
  8
0
  6
Continuous
 62
     7
100
AcDbLine
 10
91.46613384471038
 20
129.1823547643334
 30
0.0
 11
87.5411611811054
 21
129.1823547643446
 31
0.0
  0
LINE
  5
FC
330
1F
100
AcDbEntity
  8
0
  6
Continuous
 62
     7
100
AcDbLine
 10
119.3661885175001
 20
129.1823547643334
 30
0.0
 11
92.71613384471038
 21
129.1823547643334
 31
0.0
  0
LINE
  5
FD
330
1F
100
AcDbEntity
  8
0
  6
Continuous
 62
     7
100
AcDbLine
 10
91.46613384471038
 20
129.1823547643334
 30
0.0
 11
92.71613384471038
 21
129.1823547643334
 31
0.0
  0
LINE
  5
FE
330
1F
100
AcDbEntity
  8
0
  6
Continuous
 62
     7
100
AcDbLine
 10
84.70159661424981
 20
130.0338866278133
 30
0.0
 11
84.46859731476968
 21
130.1186914374288
 31
0.0
  0
LINE
  5
FF
330
1F
100
AcDbEntity
  8
0
  6
Continuous
 62
     7
100
AcDbLine
 10
74.14470424954436
 20
127.2071156771783
 30
0.0
 11
88.79750278760781
 21
127.2071156771783
 31
0.0
  0
LINE
  5
100
330
1F
100
AcDbEntity
  8
0
  6
Continuous
 62
     7
100
AcDbLine
 10
74.3003799449175
 20
127.2509527918572
 30
0.0
 11
74.14470424954436
 21
127.2071156771783
 31
0.0
  0
LINE
  5
101
330
1F
100
AcDbEntity
  8
0
  6
Continuous
 62
     7
100
AcDbLine
 10
74.93402871845217
 20
126.3454737249583
 30
0.0
 11
74.76930089774294
 21
126.3145720255206
 31
0.0
  0
LINE
  5
102
330
1F
100
AcDbEntity
  8
0
  6
Continuous
 62
     7
100
AcDbLine
 10
75.17266700974722
 20
125.3805271902354
 30
0.0
 11
75.34324071613781
 21
125.397892008002
 31
0.0
  0
LINE
  5
103
330
1F
100
AcDbEntity
  8
0
  6
Continuous
 62
     7
100
AcDbLine
 10
88.953178482981
 20
127.2509527918572
 30
0.0
 11
74.3003799449175
 21
127.2509527918572
 31
0.0
  0
LINE
  5
104
330
1F
100
AcDbEntity
  8
0
  6
Continuous
 62
     7
100
AcDbLine
 10
73.45462764814579
 20
128.0967050886289
 30
0.0
 11
88.10742618620918
 21
128.0967050886289
 31
0.0
  0
LINE
  5
105
330
1F
100
AcDbEntity
  8
0
  6
Continuous
 62
     7
100
AcDbLine
 10
113.5411611811055
 20
126.6823547643337
 30
0.0
 11
98.54116118110551
 21
126.6823547643335
 31
0.0
  0
LINE
  5
106
330
1F
100
AcDbEntity
  8
0
  6
Continuous
 62
     7
100
AcDbLine
 10
88.953178482981
 20
127.2509527918572
 30
0.0
 11
88.79750278760781
 21
127.2071156771783
 31
0.0
  0
LINE
  5
107
330
1F
100
AcDbEntity
  8
0
  6
Continuous
 62
     7
100
AcDbLine
 10
91.46613384471073
 20
126.6823547643334
 30
0.0
 11
90.19500005938232
 21
126.6823547643337
 31
0.0
  0
LINE
  5
108
330
1F
100
AcDbEntity
  8
0
  6
Continuous
 62
     7
100
AcDbLine
 10
98.54116118110551
 20
126.6823547643335
 30
0.0
 11
98.54116118110528
 21
126.3454737249582
 31
0.0
  0
LINE
  5
109
330
1F
100
AcDbEntity
  8
0
  6
Continuous
 62
     7
100
AcDbLine
 10
91.46613384471073
 20
126.6823547643334
 30
0.0
 11
92.71613384471073
 21
126.6823547643338
 31
0.0
  0
LINE
  5
10A
330
1F
100
AcDbEntity
  8
0
  6
Continuous
 62
     7
100
AcDbLine
 10
98.54116118110551
 20
126.6823547643335
 30
0.0
 11
92.71613384471073
 21
126.6823547643338
 31
0.0
  0
LINE
  5
10B
330
1F
100
AcDbEntity
  8
0
  6
Continuous
 62
     7
100
AcDbLine
 10
123.1291438792297
 20
127.2509527918572
 30
0.0
 11
123.2848195746029
 21
127.2071156771783
 31
0.0
  0
LINE
  5
10C
330
1F
100
AcDbEntity
  8
0
  6
Continuous
 62
     7
100
AcDbLine
 10
113.5411611811052
 20
125.3805271902354
 30
0.0
 11
113.5411611811052
 21
125.397892008002
 31
0.0
  0
LINE
  5
10D
330
1F
100
AcDbEntity
  8
0
  6
Continuous
 62
     7
100
AcDbLine
 10
113.5411611811052
 20
125.3805271902354
 30
0.0
 11
136.9096553524638
 21
125.3805271902354
 31
0.0
  0
LINE
  5
10E
330
1F
100
AcDbEntity
  8
0
  6
Continuous
 62
     7
100
AcDbLine
 10
136.9096553524638
 20
125.3805271902354
 30
0.0
 11
136.7390816460734
 21
125.397892008002
 31
0.0
  0
LINE
  5
10F
330
1F
100
AcDbEntity
  8
0
  6
Continuous
 62
     7
100
AcDbLine
 10
84.70159661424981
 20
130.0338866278133
 30
0.0
 11
86.04571961000204
 21
129.5446658661667
 31
0.0
  0
LINE
  5
110
330
1F
100
AcDbEntity
  8
0
  6
Continuous
 62
     7
100
AcDbLine
 10
147.0159624082305
 20
131.182354764335
 30
0.0
 11
130.5361160200146
 21
131.1823547643343
 31
0.0
  0
LINE
  5
111
330
1F
100
AcDbEntity
  8
0
  6
Continuous
 62
     7
100
AcDbLine
 10
129.7910877102725
 20
130.9111866359023
 30
0.0
 11
129.5269832298948
 21
130.8150604663084
 31
0.0
  0
LINE
  5
112
330
1F
100
AcDbEntity
  8
0
  6
Continuous
 62
     7
100
AcDbLine
 10
129.7910877102725
 20
130.9111866359023
 30
0.0
 11
130.348948190353
 21
131.1142312455251
 31
0.0
  0
LINE
  5
113
330
1F
100
AcDbEntity
  8
0
  6
Continuous
 62
     7
100
AcDbLine
 10
147.0159624082305
 20
131.182354764335
 30
0.0
 11
147.6411611811056
 21
131.182354764335
 31
0.0
  0
LINE
  5
114
330
1F
100
AcDbEntity
  8
0
  6
Continuous
 62
     7
100
AcDbLine
 10
146.9918569200394
 20
131.1142312455251
 30
0.0
 11
130.348948190353
 21
131.1142312455251
 31
0.0
  0
LINE
  5
115
330
1F
100
AcDbEntity
  8
0
  6
Continuous
 62
     7
100
AcDbLine
 10
145.3373157602348
 20
130.9111866359023
 30
0.0
 11
129.7910877102725
 21
130.9111866359023
 31
0.0
  0
LINE
  5
116
330
1F
100
AcDbEntity
  8
0
  6
Continuous
 62
     7
100
AcDbLine
 10
145.3373157602348
 20
130.9111866359023
 30
0.0
 11
145.3850575507087
 21
130.8150604663084
 31
0.0
  0
LINE
  5
117
330
1F
100
AcDbEntity
  8
0
  6
Continuous
 62
     7
100
AcDbLine
 10
130.348948190353
 20
131.1142312455251
 30
0.0
 11
130.5361160200146
 21
131.1823547643343
 31
0.0
  0
LINE
  5
118
330
1F
100
AcDbEntity
  8
0
  6
Continuous
 62
     7
100
AcDbLine
 10
129.5269832298948
 20
130.8150604663084
 30
0.0
 11
145.3850575507087
 21
130.8150604663084
 31
0.0
  0
LINE
  5
119
330
1F
100
AcDbEntity
  8
0
  6
Continuous
 62
     7
100
AcDbLine
 10
128.873392699461
 20
130.5771729678322
 30
0.0
 11
143.7478213756565
 21
130.5771729678322
 31
0.0
  0
LINE
  5
11A
330
1F
100
AcDbEntity
  8
0
  6
Continuous
 62
     7
100
AcDbLine
 10
138.3292410934074
 20
120.7323547643336
 30
0.0
 11
138.1792410934075
 21
120.6823547643334
 31
0.0
  0
LINE
  5
11B
330
1F
100
AcDbEntity
  8
0
  6
Continuous
 62
     7
100
AcDbLine
 10
136.9150306194686
 20
122.4889014951357
 30
0.0
 11
137.0830907690964
 21
122.5130936846958
 31
0.0
  0
LINE
  5
11C
330
1F
100
AcDbEntity
  8
0
  6
Continuous
 62
     7
100
AcDbLine
 10
128.873392699461
 20
130.5771729678322
 30
0.0
 11
129.5269832298948
 21
130.8150604663084
 31
0.0
  0
LINE
  5
11D
330
1F
100
AcDbEntity
  8
0
  6
Continuous
 62
     7
100
AcDbLine
 10
66.2911613151557
 20
112.7402620865207
 30
0.0
 11
66.29116118110551
 21
108.8823547643364
 31
0.0
  0
LINE
  5
11E
330
1F
100
AcDbEntity
  8
0
  6
Continuous
 62
     7
100
AcDbLine
 10
66.29116118110551
 20
108.8823547643364
 30
0.0
 11
66.2911613151557
 21
102.0823547643364
 31
0.0
  0
LINE
  5
11F
330
1F
100
AcDbEntity
  8
0
  6
Continuous
 62
     7
100
AcDbLine
 10
145.7911611811055
 20
108.8823547643364
 30
0.0
 11
145.7911613151557
 21
102.0823547643364
 31
0.0
  0
LINE
  5
120
330
1F
100
AcDbEntity
  8
0
  6
Continuous
 62
     7
100
AcDbLine
 10
145.7911613151557
 20
112.740261817797
 30
0.0
 11
145.7911611811055
 21
108.8823547643364
 31
0.0
  0
LINE
  5
121
330
1F
100
AcDbEntity
  8
0
  6
Continuous
 62
     7
100
AcDbLine
 10
146.2911611811055
 20
102.0823547643364
 30
0.0
 11
146.2911611811055
 21
108.8823547643364
 31
0.0
  0
LINE
  5
122
330
1F
100
AcDbEntity
  8
0
  6
Continuous
 62
     7
100
AcDbLine
 10
146.5411611811055
 20
102.3323547643365
 30
0.0
 11
146.2911611811055
 21
102.0823547643364
 31
0.0
  0
LINE
  5
123
330
1F
100
AcDbEntity
  8
0
  6
Continuous
 62
     7
100
AcDbLine
 10
151.7911611811055
 20
103.5823547643364
 30
0.0
 11
151.7911611811055
 21
107.3823547643364
 31
0.0
  0
LINE
  5
124
330
1F
100
AcDbEntity
  8
0
  6
Continuous
 62
     7
100
AcDbLine
 10
60.29116118110551
 20
107.3823547643364
 30
0.0
 11
60.29116118110551
 21
103.5823547643364
 31
0.0
  0
LINE
  5
125
330
1F
100
AcDbEntity
  8
0
  6
Continuous
 62
     7
100
AcDbLine
 10
65.79116118110551
 20
108.8823547643364
 30
0.0
 11
65.79116118110551
 21
102.0823547643364
 31
0.0
  0
LINE
  5
126
330
1F
100
AcDbEntity
  8
0
  6
Continuous
 62
     7
100
AcDbLine
 10
65.54116118110551
 20
102.3323547643364
 30
0.0
 11
65.79116118110551
 21
102.0823547643364
 31
0.0
  0
LINE
  5
127
330
1F
100
AcDbEntity
  8
0
  6
Continuous
 62
     7
100
AcDbLine
 10
65.79116118110551
 20
108.8823547643364
 30
0.0
 11
66.29116118110551
 21
108.8823547643364
 31
0.0
  0
LINE
  5
128
330
1F
100
AcDbEntity
  8
0
  6
Continuous
 62
     7
100
AcDbLine
 10
65.79116118110551
 20
102.0823547643364
 30
0.0
 11
66.2911613151557
 21
102.0823547643364
 31
0.0
  0
LINE
  5
129
330
1F
100
AcDbEntity
  8
0
  6
Continuous
 62
     7
100
AcDbLine
 10
146.2911611811055
 20
102.0823547643364
 30
0.0
 11
145.7911613151557
 21
102.0823547643364
 31
0.0
  0
LINE
  5
12A
330
1F
100
AcDbEntity
  8
0
  6
Continuous
 62
     7
100
AcDbLine
 10
146.2911611811055
 20
108.8823547643364
 30
0.0
 11
145.7911611811055
 21
108.8823547643364
 31
0.0
  0
LINE
  5
12B
330
1F
100
AcDbEntity
  8
0
  6
Continuous
 62
     7
100
AcDbLine
 10
65.54116118110551
 20
108.6323547643365
 30
0.0
 11
65.79116118110551
 21
108.8823547643364
 31
0.0
  0
LINE
  5
12C
330
1F
100
AcDbEntity
  8
0
  6
Continuous
 62
     7
100
AcDbLine
 10
146.5411611811055
 20
108.6323547643364
 30
0.0
 11
146.2911611811055
 21
108.8823547643364
 31
0.0
  0
LINE
  5
12D
330
1F
100
AcDbEntity
  8
1
  6
DOT_CENTER
 62
     7
100
AcDbLine
 10
146.5411611811057
 20
105.4823547643364
 30
0.0
 11
145.7911611811055
 21
105.4823547643364
 31
0.0
  0
LINE
  5
12E
330
1F
100
AcDbEntity
  8
1
  6
DOT_CENTER
 62
     7
100
AcDbLine
 10
65.54116118110551
 20
105.4823547643364
 30
0.0
 11
66.2911613151557
 21
105.4823547643364
 31
0.0
  0
LINE
  5
12F
330
1F
100
AcDbEntity
  8
0
  6
Continuous
 62
     7
100
AcDbLine
 10
151.7911611811055
 20
130.682354764335
 30
0.0
 11
151.7911611811055
 21
111.6454113578784
 31
0.0
  0
LINE
  5
130
330
1F
100
AcDbEntity
  8
0
  6
Continuous
 62
     7
100
AcDbLine
 10
146.5411611811055
 20
110.961747627331
 30
0.0
 11
146.5411611811055
 21
100.5822849634877
 31
0.0
  0
LINE
  5
131
330
1F
100
AcDbEntity
  8
0
  6
Continuous
 62
     7
100
AcDbLine
 10
146.5411611811055
 20
98.78235476433612
 30
0.0
 11
146.5411611811055
 21
100.5822849634877
 31
0.0
  0
LINE
  5
132
330
1F
100
AcDbEntity
  8
0
  6
Continuous
 62
     7
100
AcDbLine
 10
64.4411611811056
 20
131.1823547643342
 30
0.0
 11
60.79116118110551
 21
131.182354764335
 31
0.0
  0
LINE
  5
133
330
1F
100
AcDbEntity
  8
0
  6
Continuous
 62
     7
100
AcDbLine
 10
147.6411611811056
 20
131.182354764335
 30
0.0
 11
151.2911611811055
 21
131.182354764335
 31
0.0
  0
LINE
  5
134
330
1F
100
AcDbEntity
  8
0
  6
Continuous
 62
     7
100
AcDbLine
 10
60.29116118110551
 20
130.682354764335
 30
0.0
 11
60.29116118110551
 21
111.6454113578784
 31
0.0
  0
LINE
  5
135
330
1F
100
AcDbEntity
  8
0
  6
Continuous
 62
     7
100
AcDbLine
 10
151.7911611811055
 20
111.6454113578784
 30
0.0
 11
151.7911611811055
 21
107.3823547643364
 31
0.0
  0
LINE
  5
136
330
1F
100
AcDbEntity
  8
0
  6
Continuous
 62
     7
100
AcDbLine
 10
151.7911611811055
 20
100.9479618142972
 30
0.0
 11
151.7911611811055
 21
103.5823547643364
 31
0.0
  0
LINE
  5
137
330
1F
100
AcDbEntity
  8
0
  6
Continuous
 62
     7
100
AcDbLine
 10
151.7911611811055
 20
99.28235476433612
 30
0.0
 11
151.7911611811055
 21
100.9479618142972
 31
0.0
  0
LINE
  5
138
330
1F
100
AcDbEntity
  8
0
  6
Continuous
 62
     7
100
AcDbLine
 10
151.2911611811055
 20
98.78235476433612
 30
0.0
 11
146.5411611811055
 21
98.78235476433612
 31
0.0
  0
LINE
  5
139
330
1F
100
AcDbEntity
  8
0
  6
Continuous
 62
     7
100
AcDbLine
 10
151.7911611811055
 20
103.5823547643364
 30
0.0
 11
151.7911611811055
 21
107.3823547643364
 31
0.0
  0
LINE
  5
13A
330
1F
100
AcDbEntity
  8
0
  6
Continuous
 62
     7
100
AcDbLine
 10
60.29116118110551
 20
99.28235476433612
 30
0.0
 11
60.29116118110551
 21
100.9479618142972
 31
0.0
  0
LINE
  5
13B
330
1F
100
AcDbEntity
  8
0
  6
Continuous
 62
     7
100
AcDbLine
 10
60.29116118110551
 20
107.3823547643364
 30
0.0
 11
60.29116118110551
 21
111.6454113578784
 31
0.0
  0
LINE
  5
13C
330
1F
100
AcDbEntity
  8
0
  6
Continuous
 62
     7
100
AcDbLine
 10
60.29116118110551
 20
100.9479618142972
 30
0.0
 11
60.29116118110551
 21
103.5823547643364
 31
0.0
  0
LINE
  5
13D
330
1F
100
AcDbEntity
  8
0
  6
Continuous
 62
     7
100
AcDbLine
 10
60.29116118110551
 20
107.3823547643364
 30
0.0
 11
60.29116118110551
 21
103.5823547643364
 31
0.0
  0
LINE
  5
13E
330
1F
100
AcDbEntity
  8
0
  6
Continuous
 62
     7
100
AcDbLine
 10
60.79116118110551
 20
98.78235476433612
 30
0.0
 11
65.54116118110551
 21
98.78235476433612
 31
0.0
  0
LINE
  5
13F
330
1F
100
AcDbEntity
  8
0
  6
Continuous
 62
     7
100
AcDbLine
 10
65.54116118110551
 20
110.961747627331
 30
0.0
 11
65.54116118110551
 21
100.5822849634877
 31
0.0
  0
LINE
  5
140
330
1F
100
AcDbEntity
  8
0
  6
Continuous
 62
     7
100
AcDbLine
 10
65.54116118110551
 20
98.78235476433612
 30
0.0
 11
65.54116118110551
 21
100.5822849634877
 31
0.0
  0
LINE
  5
141
330
1F
100
AcDbEntity
  8
0
  6
Continuous
 62
     7
100
AcDbLine
 10
68.34116118110546
 20
113.5727898685164
 30
0.0
 11
143.7411611811056
 21
113.5727898685164
 31
0.0
  0
LINE
  5
142
330
1F
100
AcDbEntity
  8
0
  6
Continuous
 62
     7
100
AcDbLine
 10
145.7911613151557
 20
102.0823547643364
 30
0.0
 11
145.7911613151557
 21
94.182354764336
 31
0.0
  0
LINE
  5
143
330
1F
100
AcDbEntity
  8
1
  6
Continuous
 62
     7
100
AcDbLine
 10
66.2911613151557
 20
102.0823547643364
 30
0.0
 11
66.2911613151557
 21
94.182354764336
 31
0.0
  0
LINE
  5
144
330
1F
100
AcDbEntity
  8
1
  6
Continuous
 62
     7
100
AcDbLine
 10
63.04116118110525
 20
93.682354764336
 30
0.0
 11
65.7911613151557
 21
93.682354764336
 31
0.0
  0
LINE
  5
145
330
1F
100
AcDbEntity
  8
0
  6
Continuous
 62
     7
100
AcDbLine
 10
200.5450141918992
 20
93.682354764336
 30
0.0
 11
220.337342458626
 21
93.682354764336
 31
0.0
  0
LINE
  5
146
330
1F
100
AcDbEntity
  8
1
  6
DOT_CENTER
 62
     7
100
AcDbLine
 10
210.4411783252619
 20
110.1023547643359
 30
0.0
 11
210.4411783252619
 21
100.8623547643361
 31
0.0
  0
LINE
  5
147
330
1F
100
AcDbEntity
  8
1
  6
DOT_CENTER
 62
     7
100
AcDbLine
 10
215.0611783252618
 20
105.482354764336
 30
0.0
 11
205.8211783252621
 21
105.482354764336
 31
0.0
  0
LINE
  5
148
330
1F
100
AcDbEntity
  8
0
  6
Continuous
 62
     7
100
AcDbLine
 10
207.2489474314925
 20
123.2823547643366
 30
0.0
 11
210.441178325264
 21
123.2823547643366
 31
0.0
  0
LINE
  5
149
330
1F
100
AcDbEntity
  8
0
  6
Continuous
 62
     7
100
AcDbLine
 10
239.3033794033045
 20
123.4611083677846
 30
0.0
 11
239.4028315928414
 21
123.4506555214579
 31
0.0
  0
LINE
  5
14A
330
1F
100
AcDbEntity
  8
0
  6
Continuous
 62
     7
100
AcDbLine
 10
215.0105673376809
 20
100.5822849634873
 30
0.0
 11
226.4821775052849
 21
111.2797345070682
 31
0.0
  0
LINE
  5
14B
330
1F
100
AcDbEntity
  8
0
  6
Continuous
 62
     7
100
AcDbLine
 10
232.4411783269625
 20
117.1436637710971
 30
0.0
 11
232.4411783252585
 21
116.8365926700004
 31
0.0
  0
LINE
  5
14C
330
1F
100
AcDbEntity
  8
0
  6
Continuous
 62
     7
100
AcDbLine
 10
232.4411783252624
 20
117.2823547643318
 30
0.0
 11
232.4411783269625
 21
117.1436637710971
 31
0.0
  0
LINE
  5
14D
330
1F
100
AcDbEntity
  8
0
  6
Continuous
 62
     7
100
AcDbLine
 10
232.4411783252585
 20
116.8365926700004
 30
0.0
 11
226.4821775052849
 21
111.2797345070682
 31
0.0
  0
LINE
  5
14E
330
1F
100
AcDbEntity
  8
0
  6
Continuous
 62
     7
100
AcDbLine
 10
215.8911392915903
 20
110.1264402659496
 30
0.0
 11
219.2833666817058
 21
113.2897434828417
 31
0.0
  0
LINE
  5
14F
330
1F
100
AcDbEntity
  8
0
  6
Continuous
 62
     7
100
AcDbLine
 10
222.397561597901
 20
111.0225470078199
 30
0.0
 11
217.7982632844535
 21
106.7336319448825
 31
0.0
  0
LINE
  5
150
330
1F
100
AcDbEntity
  8
0
  6
Continuous
 62
     7
100
AcDbLine
 10
205.8717893128435
 20
110.3824245651852
 30
0.0
 11
211.9411783252645
 21
116.0422213828952
 31
0.0
  0
LINE
  5
151
330
1F
100
AcDbEntity
  8
0
  6
Continuous
 62
     7
100
AcDbLine
 10
238.8387469217741
 20
121.5975692697617
 30
0.0
 11
238.9314653072309
 21
121.5601086104201
 31
0.0
  0
LINE
  5
152
330
1F
100
AcDbEntity
  8
0
  6
Continuous
 62
     7
100
AcDbLine
 10
232.8241224526986
 20
131.1823547643346
 30
0.0
 11
232.4631637728824
 21
131.1823547643349
 31
0.0
  0
LINE
  5
153
330
1F
100
AcDbEntity
  8
0
  6
Continuous
 62
     7
100
AcDbLine
 10
233.4153900319846
 20
131.114231245523
 30
0.0
 11
233.4014727218886
 21
131.015204438649
 31
0.0
  0
LINE
  5
154
330
1F
100
AcDbEntity
  8
0
  6
Continuous
 62
     7
100
AcDbLine
 10
237.3037869184759
 20
119.1469761619611
 30
0.0
 11
237.23432108143
 21
119.2189101419951
 31
0.0
  0
LINE
  5
155
330
1F
100
AcDbEntity
  8
0
  6
Continuous
 62
     7
100
AcDbLine
 10
236.4968965660809
 20
118.6001375031446
 30
0.0
 11
236.5556750913101
 21
118.5192358037071
 31
0.0
  0
LINE
  5
156
330
1F
100
AcDbEntity
  8
0
  6
Continuous
 62
     7
100
AcDbLine
 10
237.8784525251494
 20
119.9342905845847
 30
0.0
 11
237.9572536005099
 21
119.8727244370522
 31
0.0
  0
LINE
  5
157
330
1F
100
AcDbEntity
  8
0
  6
Continuous
 62
     7
100
AcDbLine
 10
237.6431921036057
 20
128.8662690088437
 30
0.0
 11
237.568877621058
 21
128.7993559482079
 31
0.0
  0
LINE
  5
158
330
1F
100
AcDbEntity
  8
0
  6
Continuous
 62
     7
100
AcDbLine
 10
232.9224979940971
 20
117.2991628175393
 30
0.0
 11
232.9294736414714
 21
117.1994064125129
 31
0.0
  0
LINE
  5
159
330
1F
100
AcDbEntity
  8
0
  6
Continuous
 62
     7
100
AcDbLine
 10
236.9406915930698
 20
129.5446658661646
 30
0.0
 11
236.8764128321015
 21
129.468061421853
 31
0.0
  0
LINE
  5
15A
330
1F
100
AcDbEntity
  8
0
  6
Continuous
 62
     7
100
AcDbLine
 10
236.1506131748974
 20
130.1186914374279
 30
0.0
 11
236.0976212484732
 21
130.0338866278112
 31
0.0
  0
LINE
  5
15B
330
1F
100
AcDbEntity
  8
0
  6
Continuous
 62
     7
100
AcDbLine
 10
235.2476611624873
 20
130.4858184220659
 30
0.0
 11
235.2883348267948
 21
130.5771729678301
 31
0.0
  0
LINE
  5
15C
330
1F
100
AcDbEntity
  8
0
  6
Continuous
 62
     7
100
AcDbLine
 10
233.8965601609869
 20
117.3353215591954
 30
0.0
 11
233.8757689919053
 21
117.4331363192688
 31
0.0
  0
LINE
  5
15D
330
1F
100
AcDbEntity
  8
0
  6
Continuous
 62
     7
100
AcDbLine
 10
234.8011173142099
 20
117.6984756809092
 30
0.0
 11
234.8353193285424
 21
117.6045064188306
 31
0.0
  0
LINE
  5
15E
330
1F
100
AcDbEntity
  8
0
  6
Continuous
 62
     7
100
AcDbLine
 10
235.727479264764
 20
118.0017216143193
 30
0.0
 11
235.6805321084853
 21
118.0900163736052
 31
0.0
  0
LINE
  5
15F
330
1F
100
AcDbEntity
  8
0
  6
Continuous
 62
     7
100
AcDbLine
 10
234.3706398159841
 20
130.9111866359041
 30
0.0
 11
234.3430760804017
 21
130.8150604663068
 31
0.0
  0
LINE
  5
160
330
1F
100
AcDbEntity
  8
0
  6
Continuous
 62
     7
100
AcDbLine
 10
239.2363518210479
 20
125.3805271902333
 30
0.0
 11
239.3348325963492
 21
125.397892008
 31
0.0
  0
LINE
  5
161
330
1F
100
AcDbEntity
  8
0
  6
Continuous
 62
     7
100
AcDbLine
 10
239.0985739393299
 20
126.3454737249561
 30
0.0
 11
239.0034682877003
 21
126.3145720255186
 31
0.0
  0
LINE
  5
162
330
1F
100
AcDbEntity
  8
0
  6
Continuous
 62
     7
100
AcDbLine
 10
239.4369141143973
 20
124.4266512412489
 30
0.0
 11
239.3369750316952
 21
124.4231612915787
 31
0.0
  0
LINE
  5
163
330
1F
100
AcDbEntity
  8
0
  6
Continuous
 62
     7
100
AcDbLine
 10
226.1411783252559
 20
131.1823547643326
 30
0.0
 11
207.9829207557701
 21
131.1823547643349
 31
0.0
  0
LINE
  5
164
330
1F
100
AcDbEntity
  8
0
  6
Continuous
 62
     7
100
AcDbLine
 10
238.7327366493582
 20
127.2509527918551
 30
0.0
 11
238.6428572447282
 21
127.2071156771761
 31
0.0
  0
LINE
  5
165
330
1F
100
AcDbEntity
  8
0
  6
Continuous
 62
     7
100
AcDbLine
 10
238.1615375758937
 20
128.0407857982797
 30
0.0
 11
238.2444413331494
 21
128.0967050886268
 31
0.0
  0
LINE
  5
166
330
1F
100
AcDbEntity
  8
0
  6
Continuous
 62
     7
100
AcDbLine
 10
232.4631637728824
 20
131.1823547643349
 30
0.0
 11
226.1411783252559
 21
131.1823547643326
 31
0.0
  0
LINE
  5
167
330
1F
100
AcDbEntity
  8
0
  6
Continuous
 62
     7
100
AcDbLine
 10
207.9411783252403
 20
128.682354764335
 30
0.0
 11
215.4411783252651
 21
128.6823547643354
 31
0.0
  0
LINE
  5
168
330
1F
100
AcDbEntity
  8
0
  6
Continuous
 62
     7
100
AcDbLine
 10
239.2332484091955
 20
122.4889014951338
 30
0.0
 11
239.1362188365677
 21
122.5130936846938
 31
0.0
  0
LINE
  5
169
330
1F
100
AcDbEntity
  8
0
  6
Continuous
 62
     7
100
AcDbLine
 10
214.4411783252642
 20
125.5823547643331
 30
0.0
 11
207.9411783252398
 21
125.5823547643343
 31
0.0
  0
LINE
  5
16A
330
1F
100
AcDbEntity
  8
0
  6
Continuous
 62
     7
100
AcDbLine
 10
238.5033561517542
 20
120.6823547643315
 30
0.0
 11
238.4167536113758
 21
120.7323547643316
 31
0.0
  0
LINE
  5
16B
330
1F
100
AcDbEntity
  8
0
  6
Continuous
 62
     7
100
AcDbLine
 10
211.941178325264
 20
121.7823547643366
 30
0.0
 11
211.9411783252645
 21
116.0422213828952
 31
0.0
  0
LINE
  5
16C
330
1F
100
AcDbEntity
  8
0
  6
Continuous
 62
     7
100
AcDbLine
 10
195.5378423057379
 20
91.88235476433601
 30
0.0
 11
194.4411783252627
 21
91.88235476433601
 31
0.0
  0
LINE
  5
16D
330
1F
100
AcDbEntity
  8
0
  6
Continuous
 62
     7
100
AcDbLine
 10
200.4411783252627
 20
88.38235476433601
 30
0.0
 11
220.4411783252627
 21
88.38235476433601
 31
0.0
  0
LINE
  5
16E
330
1F
100
AcDbEntity
  8
0
  6
Continuous
 62
     7
100
AcDbLine
 10
225.3244806343563
 20
94.17799149650801
 30
0.0
 11
225.1857859278048
 21
110.0708298035262
 31
0.0
  0
LINE
  5
16F
330
1F
100
AcDbEntity
  8
0
  6
Continuous
 62
     7
100
AcDbLine
 10
226.4411783252627
 20
88.38235476433601
 30
0.0
 11
220.4411783252627
 21
88.38235476433601
 31
0.0
  0
LINE
  5
170
330
1F
100
AcDbEntity
  8
0
  6
Continuous
 62
     7
100
AcDbLine
 10
225.3374566952331
 20
92.69108129983442
 30
0.0
 11
225.3445143447873
 21
91.88235476433601
 31
0.0
  0
LINE
  5
171
330
1F
100
AcDbEntity
  8
0
  6
Continuous
 62
     7
100
AcDbLine
 10
225.3374566952331
 20
92.69108129983442
 30
0.0
 11
225.3244806343563
 21
94.17799149650801
 31
0.0
  0
LINE
  5
172
330
1F
100
AcDbEntity
  8
0
  6
Continuous
 62
     7
100
AcDbLine
 10
224.337494772169
 20
93.682354764336
 30
0.0
 11
220.337342458626
 21
93.682354764336
 31
0.0
  0
LINE
  5
173
330
1F
100
AcDbEntity
  8
0
  6
Continuous
 62
     7
100
AcDbLine
 10
226.4411783252627
 20
91.88235476433601
 30
0.0
 11
225.3445143447873
 21
91.88235476433601
 31
0.0
  0
LINE
  5
174
330
1F
100
AcDbEntity
  8
0
  6
Continuous
 62
     7
100
AcDbLine
 10
225.3445143447873
 20
91.88235476433601
 30
0.0
 11
220.4411783252627
 21
91.88235476433601
 31
0.0
  0
LINE
  5
175
330
1F
100
AcDbEntity
  8
0
  6
Continuous
 62
     7
100
AcDbLine
 10
226.4411783252627
 20
91.88235476433601
 30
0.0
 11
226.4411783252627
 21
88.38235476433601
 31
0.0
  0
LINE
  5
176
330
1F
100
AcDbEntity
  8
0
  6
Continuous
 62
     7
100
AcDbLine
 10
202.2409308251796
 20
115.182354764336
 30
0.0
 11
211.0190842687269
 21
115.182354764336
 31
0.0
  0
LINE
  5
177
330
1F
100
AcDbEntity
  8
0
  6
Continuous
 62
     7
100
AcDbLine
 10
195.7411783252626
 20
115.182354764336
 30
0.0
 11
202.2409308251796
 21
115.182354764336
 31
0.0
  0
LINE
  5
178
330
1F
100
AcDbEntity
  8
0
  6
Continuous
 62
     7
100
AcDbLine
 10
195.7411783252626
 20
115.182354764336
 30
0.0
 11
195.557876016169
 21
94.17799149650801
 31
0.0
  0
LINE
  5
179
330
1F
100
AcDbEntity
  8
0
  6
Continuous
 62
     7
100
AcDbLine
 10
200.4411783252627
 20
88.38235476433601
 30
0.0
 11
194.4411783252627
 21
88.38235476433601
 31
0.0
  0
LINE
  5
17A
330
1F
100
AcDbEntity
  8
0
  6
Continuous
 62
     7
100
AcDbLine
 10
195.5448999552922
 20
92.69108129983442
 30
0.0
 11
195.5378423057379
 21
91.88235476433601
 31
0.0
  0
LINE
  5
17B
330
1F
100
AcDbEntity
  8
0
  6
Continuous
 62
     7
100
AcDbLine
 10
195.5448999552922
 20
92.69108129983442
 30
0.0
 11
195.557876016169
 21
94.17799149650801
 31
0.0
  0
LINE
  5
17C
330
1F
100
AcDbEntity
  8
0
  6
Continuous
 62
     7
100
AcDbLine
 10
200.5450141918992
 20
93.682354764336
 30
0.0
 11
196.5448618783562
 21
93.682354764336
 31
0.0
  0
LINE
  5
17D
330
1F
100
AcDbEntity
  8
0
  6
Continuous
 62
     7
100
AcDbLine
 10
200.4411783252627
 20
91.88235476433601
 30
0.0
 11
220.4411783252627
 21
91.88235476433601
 31
0.0
  0
LINE
  5
17E
330
1F
100
AcDbEntity
  8
0
  6
Continuous
 62
     7
100
AcDbLine
 10
200.4411783252627
 20
91.88235476433601
 30
0.0
 11
195.5378423057379
 21
91.88235476433601
 31
0.0
  0
LINE
  5
17F
330
1F
100
AcDbEntity
  8
0
  6
Continuous
 62
     7
100
AcDbLine
 10
194.4411783252627
 20
91.88235476433601
 30
0.0
 11
194.4411783252627
 21
88.38235476433601
 31
0.0
  0
LINE
  5
180
330
1F
100
AcDbEntity
  8
0
  6
Continuous
 62
     7
100
AcDbLine
 10
239.6062418347244
 20
126.6823547643311
 30
0.0
 11
238.8723524015888
 21
126.6823547643313
 31
0.0
  0
LINE
  5
181
330
1F
100
AcDbEntity
  8
0
  6
Continuous
 62
     7
100
AcDbLine
 10
239.6062418347244
 20
126.6823547643311
 30
0.0
 11
239.9411783252634
 21
126.6823547643313
 31
0.0
  0
LINE
  5
182
330
1F
100
AcDbEntity
  8
0
  6
Continuous
 62
     7
100
AcDbLine
 10
239.6062418347244
 20
129.1823547643311
 30
0.0
 11
237.3401578108304
 21
129.1823547643313
 31
0.0
  0
LINE
  5
183
330
1F
100
AcDbEntity
  8
0
  6
Continuous
 62
     7
100
AcDbLine
 10
239.6062418347244
 20
129.1823547643311
 30
0.0
 11
239.9411783252634
 21
129.1823547643313
 31
0.0
  0
LINE
  5
184
330
1F
100
AcDbEntity
  8
0
  6
Continuous
 62
     7
100
AcDbLine
 10
240.4411783252634
 20
127.1823547643313
 30
0.0
 11
240.4411783252634
 21
128.682354764331
 31
0.0
  0
LINE
  5
185
330
1F
100
AcDbEntity
  8
1
  6
Continuous
 62
     7
100
AcDbLine
 10
248.4710331078196
 20
105.482354764336
 30
0.0
 11
248.4710331078196
 21
102.582354764336
 31
0.0
  0
LINE
  5
186
330
1F
100
AcDbEntity
  8
1
  6
Continuous
 62
     7
100
AcDbLine
 10
108.0
 20
4.99999999999989
 30
0.0
 11
108.0
 21
40.0
 31
0.0
  0
LINE
  5
187
330
1F
100
AcDbEntity
  8
1
  6
Continuous
 62
     7
100
AcDbLine
 10
108.0
 20
20.0
 30
0.0
 11
292.0
 21
20.0
 31
0.0
  0
LINE
  5
188
330
1F
100
AcDbEntity
  8
1
  6
Continuous
 62
     7
100
AcDbLine
 10
4.99999999999977
 20
189.0
 30
0.0
 11
4.99999999999977
 21
5.0
 31
0.0
  0
LINE
  5
189
330
1F
100
AcDbEntity
  8
1
  6
Continuous
 62
     7
100
AcDbLine
 10
133.0000000000001
 20
35.0
 30
0.0
 11
133.0000000000001
 21
40.0
 31
0.0
  0
LINE
  5
18A
330
1F
100
AcDbEntity
  8
1
  6
Continuous
 62
     7
100
AcDbLine
 10
115.0
 20
35.0
 30
0.0
 11
115.0
 21
40.0
 31
0.0
  0
LINE
  5
18B
330
1F
100
AcDbEntity
  8
1
  6
Continuous
 62
     7
100
AcDbLine
 10
108.0
 20
40.0
 30
0.0
 11
292.0
 21
40.0
 31
0.0
  0
LINE
  5
18C
330
1F
100
AcDbEntity
  8
1
  6
Continuous
 62
     7
100
AcDbLine
 10
133.0000000000001
 20
30.0
 30
0.0
 11
133.0000000000001
 21
35.0
 31
0.0
  0
LINE
  5
18D
330
1F
100
AcDbEntity
  8
1
  6
Continuous
 62
     7
100
AcDbLine
 10
115.0
 20
30.0
 30
0.0
 11
115.0
 21
35.0
 31
0.0
  0
LINE
  5
18E
330
1F
100
AcDbEntity
  8
1
  6
Continuous
 62
     7
100
AcDbLine
 10
108.0
 20
35.0
 30
0.0
 11
292.0
 21
35.0
 31
0.0
  0
LINE
  5
18F
330
1F
100
AcDbEntity
  8
1
  6
Continuous
 62
     7
100
AcDbLine
 10
133.0000000000001
 20
25.0
 30
0.0
 11
133.0000000000001
 21
30.0
 31
0.0
  0
LINE
  5
190
330
1F
100
AcDbEntity
  8
1
  6
Continuous
 62
     7
100
AcDbLine
 10
115.0
 20
25.0
 30
0.0
 11
115.0
 21
30.0
 31
0.0
  0
LINE
  5
191
330
1F
100
AcDbEntity
  8
1
  6
Continuous
 62
     7
100
AcDbLine
 10
108.0
 20
30.0
 30
0.0
 11
292.0
 21
30.0
 31
0.0
  0
LINE
  5
192
330
1F
100
AcDbEntity
  8
1
  6
Continuous
 62
     7
100
AcDbLine
 10
133.0000000000001
 20
20.0
 30
0.0
 11
133.0000000000001
 21
25.0
 31
0.0
  0
LINE
  5
193
330
1F
100
AcDbEntity
  8
1
  6
Continuous
 62
     7
100
AcDbLine
 10
115.0
 20
20.0
 30
0.0
 11
115.0
 21
25.0
 31
0.0
  0
LINE
  5
194
330
1F
100
AcDbEntity
  8
1
  6
Continuous
 62
     7
100
AcDbLine
 10
108.0
 20
25.0
 30
0.0
 11
292.0
 21
25.0
 31
0.0
  0
LINE
  5
195
102
{ACAD_REACTORS
330
2A5
102
}
330
1F
100
AcDbEntity
  8
1
  6
Continuous
 62
     7
100
AcDbLine
 10
282.8428748399058
 20
10.55800208038033
 30
0.0
 11
281.5095415065725
 21
9.78877131114973
 31
0.0
  0
LINE
  5
196
102
{ACAD_REACTORS
330
2A5
102
}
330
1F
100
AcDbEntity
  8
1
  6
Continuous
 62
     7
100
AcDbLine
 10
281.6763006887427
 20
10.65463653264794
 30
0.0
 11
282.5097265375795
 21
11.13545913774624
 31
0.0
  0
LINE
  5
197
102
{ACAD_REACTORS
330
2A5
102
}
330
1F
100
AcDbEntity
  8
1
  6
Continuous
 62
     7
100
AcDbLine
 10
281.6763006887427
 20
12.16666666666663
 30
0.0
 11
281.6763006887427
 21
10.65463653264794
 31
0.0
  0
LINE
  5
198
102
{ACAD_REACTORS
330
2A5
102
}
330
1F
100
AcDbEntity
  8
1
  6
Continuous
 62
     7
100
AcDbLine
 10
282.6763006887427
 20
12.16666666666663
 30
0.0
 11
281.6763006887427
 21
12.16666666666663
 31
0.0
  0
LINE
  5
199
102
{ACAD_REACTORS
330
2A5
102
}
330
1F
100
AcDbEntity
  8
1
  6
Continuous
 62
     7
100
AcDbLine
 10
281.6763006887427
 20
12.83333333333326
 30
0.0
 11
282.6763006887427
 21
12.83333333333326
 31
0.0
  0
LINE
  5
19A
102
{ACAD_REACTORS
330
2A5
102
}
330
1F
100
AcDbEntity
  8
1
  6
Continuous
 62
     7
100
AcDbLine
 10
281.6763006887427
 20
14.34536346735195
 30
0.0
 11
281.6763006887427
 21
12.83333333333326
 31
0.0
  0
LINE
  5
19B
102
{ACAD_REACTORS
330
2A5
102
}
330
1F
100
AcDbEntity
  8
1
  6
Continuous
 62
     7
100
AcDbLine
 10
282.5097265375795
 20
13.86454086225376
 30
0.0
 11
281.6763006887427
 21
14.34536346735195
 31
0.0
  0
LINE
  5
19C
102
{ACAD_REACTORS
330
2A5
102
}
330
1F
100
AcDbEntity
  8
1
  6
Continuous
 62
     7
100
AcDbLine
 10
281.5095415065725
 20
15.21122868885027
 30
0.0
 11
282.8428748399058
 21
14.44199791961944
 31
0.0
  0
LINE
  5
19D
102
{ACAD_REACTORS
330
2A6
102
}
330
1F
100
AcDbEntity
  8
1
  6
Continuous
 62
     7
100
AcDbLine
 10
274.3429673554093
 20
10.84673060906323
 30
0.0
 11
274.3429673554093
 21
14.15326939093666
 31
0.0
  0
LINE
  5
19E
102
{ACAD_REACTORS
330
2A6
102
}
330
1F
100
AcDbEntity
  8
1
  6
Continuous
 62
     7
100
AcDbLine
 10
275.0096340220759
 20
11.0392519172633
 30
0.0
 11
275.0096340220759
 21
10.84673060906323
 31
0.0
  0
LINE
  5
19F
102
{ACAD_REACTORS
330
2A6
102
}
330
1F
100
AcDbEntity
  8
1
  6
Continuous
 62
     7
100
AcDbLine
 10
275.0096340220759
 20
14.15326939093666
 30
0.0
 11
275.0096340220759
 21
11.0392519172633
 31
0.0
  0
LINE
  5
1A0
102
{ACAD_REACTORS
330
2A7
102
}
330
1F
100
AcDbEntity
  8
1
  6
Continuous
 62
     7
100
AcDbLine
 10
278.1763932042461
 20
8.44261746499581
 30
0.0
 11
276.009819053083
 21
9.69256409066691
 31
0.0
  0
LINE
  5
1A1
102
{ACAD_REACTORS
330
2A7
102
}
330
1F
100
AcDbEntity
  8
1
  6
Continuous
 62
     7
100
AcDbLine
 10
276.3429673554093
 20
10.2700211480327
 30
0.0
 11
278.5095415065725
 21
9.0200745223616
 31
0.0
  0
LINE
  5
1A2
102
{ACAD_REACTORS
330
2A7
102
}
330
1F
100
AcDbEntity
  8
1
  6
Continuous
 62
     7
100
AcDbLine
 10
276.3429673554093
 20
14.92250016016737
 30
0.0
 11
276.3429673554093
 21
10.2700211480327
 31
0.0
  0
LINE
  5
1A3
102
{ACAD_REACTORS
330
2A7
102
}
330
1F
100
AcDbEntity
  8
1
  6
Continuous
 62
     7
100
AcDbLine
 10
275.6763006887427
 20
10.27002114803258
 30
0.0
 11
275.6763006887427
 21
14.92250016016737
 31
0.0
  0
LINE
  5
1A4
102
{ACAD_REACTORS
330
2A8
102
}
330
1F
100
AcDbEntity
  8
1
  6
Continuous
 62
     7
100
AcDbLine
 10
279.848533671786
 20
15.86370041827229
 30
0.0
 11
278.6763006887427
 21
13.83333333333326
 31
0.0
  0
LINE
  5
1A5
102
{ACAD_REACTORS
330
2A8
102
}
330
1F
100
AcDbEntity
  8
1
  6
Continuous
 62
     7
100
AcDbLine
 10
280.3429673554093
 20
9.3082690706018
 30
0.0
 11
280.3429673554093
 21
15.73121731203457
 31
0.0
  0
LINE
  5
1A6
102
{ACAD_REACTORS
330
2A8
102
}
330
1F
100
AcDbEntity
  8
1
  6
Continuous
 62
     7
100
AcDbLine
 10
279.6763006887427
 20
12.5
 30
0.0
 11
279.6763006887427
 21
9.3082690706018
 31
0.0
  0
LINE
  5
1A7
102
{ACAD_REACTORS
330
2A8
102
}
330
1F
100
AcDbEntity
  8
1
  6
Continuous
 62
     7
100
AcDbLine
 10
277.6763006887427
 20
10.84758507263291
 30
0.0
 11
277.6763006887427
 21
12.5
 31
0.0
  0
LINE
  5
1A8
102
{ACAD_REACTORS
330
2A8
102
}
330
1F
100
AcDbEntity
  8
1
  6
Continuous
 62
     7
100
AcDbLine
 10
277.0096340220759
 20
12.5
 30
0.0
 11
277.0096340220759
 21
10.84758507263291
 31
0.0
  0
LINE
  5
1A9
102
{ACAD_REACTORS
330
2A8
102
}
330
1F
100
AcDbEntity
  8
1
  6
Continuous
 62
     7
100
AcDbLine
 10
277.5040677056994
 20
15.86370041827229
 30
0.0
 11
278.6763006887427
 21
13.83333333333326
 31
0.0
  0
LINE
  5
1AA
102
{ACAD_REACTORS
330
2A8
102
}
330
1F
100
AcDbEntity
  8
1
  6
Continuous
 62
     7
100
AcDbLine
 10
277.0096340220759
 20
12.5
 30
0.0
 11
277.0096340220759
 21
15.73121731203457
 31
0.0
  0
LINE
  5
1AB
330
1F
100
AcDbEntity
  8
1
  6
Continuous
 62
     7
100
AcDbLine
 10
278.6763006887427
 20
7.5
 30
0.0
 11
270.2598654136011
 21
12.35563573565855
 31
0.0
  0
LINE
  5
1AC
330
1F
100
AcDbEntity
  8
1
  6
Continuous
 62
     7
100
AcDbLine
 10
287.0927359638841
 20
12.35563573565855
 30
0.0
 11
278.6763006887427
 21
7.5
 31
0.0
  0
LINE
  5
1AD
330
1F
100
AcDbEntity
  8
1
  6
Continuous
 62
     7
100
AcDbLine
 10
278.6763006887427
 20
17.5
 30
0.0
 11
287.0927359638841
 21
12.64436426434133
 31
0.0
  0
LINE
  5
1AE
330
1F
100
AcDbEntity
  8
1
  6
Continuous
 62
     7
100
AcDbLine
 10
270.2598654136011
 20
12.64436426434133
 30
0.0
 11
278.6763006887427
 21
17.5
 31
0.0
  0
LINE
  5
1AF
102
{ACAD_REACTORS
330
2A8
102
}
330
1F
100
AcDbEntity
  8
1
  6
Continuous
 62
     7
100
AcDbLine
 10
277.6763006887427
 20
14.23205080756884
 30
0.0
 11
277.6763006887427
 21
12.5
 31
0.0
  0
LINE
  5
1B0
102
{ACAD_REACTORS
330
2A8
102
}
330
1F
100
AcDbEntity
  8
1
  6
Continuous
 62
     7
100
AcDbLine
 10
278.5319631214452
 20
12.75
 30
0.0
 11
277.6763006887427
 21
14.23205080756884
 31
0.0
  0
LINE
  5
1B1
102
{ACAD_REACTORS
330
2A8
102
}
330
1F
100
AcDbEntity
  8
1
  6
Continuous
 62
     7
100
AcDbLine
 10
279.6763006887427
 20
14.23205080756884
 30
0.0
 11
278.8206382560401
 21
12.75
 31
0.0
  0
LINE
  5
1B2
102
{ACAD_REACTORS
330
2A8
102
}
330
1F
100
AcDbEntity
  8
1
  6
Continuous
 62
     7
100
AcDbLine
 10
279.6763006887427
 20
12.5
 30
0.0
 11
279.6763006887427
 21
14.23205080756884
 31
0.0
  0
LINE
  5
1B3
102
{ACAD_REACTORS
330
2A5
102
}
330
1F
100
AcDbEntity
  8
1
  6
Continuous
 62
     7
100
AcDbLine
 10
281.0096340220761
 20
10.07749983983263
 30
0.0
 11
281.0096340220761
 21
14.92250016016737
 31
0.0
  0
LINE
  5
1B4
330
1F
100
AcDbEntity
  8
1
  6
Continuous
 62
     7
100
AcDbLine
 10
292.0
 20
189.0
 30
0.0
 11
4.99999999999977
 21
189.0
 31
0.0
  0
LINE
  5
1B5
330
1F
100
AcDbEntity
  8
1
  6
Continuous
 62
     7
100
AcDbLine
 10
292.0
 20
5.0
 30
0.0
 11
292.0
 21
189.0
 31
0.0
  0
LINE
  5
1B6
330
1F
100
AcDbEntity
  8
1
  6
Continuous
 62
     7
100
AcDbLine
 10
4.99999999999977
 20
5.0
 30
0.0
 11
292.0
 21
5.0
 31
0.0
  0
LINE
  5
1B7
330
1F
100
AcDbEntity
  8
1
  6
Continuous
 62
     7
100
AcDbLine
 10
297.0
 20
0.0
 30
0.0
 11
297.0
 21
210.0000000000001
 31
0.0
  0
LINE
  5
1B8
330
1F
100
AcDbEntity
  8
1
  6
Continuous
 62
     7
100
AcDbLine
 10
297.0
 20
210.0000000000001
 30
0.0
 11
-0.00000000000011
 21
210.0000000000001
 31
0.0
  0
LINE
  5
1B9
330
1F
100
AcDbEntity
  8
1
  6
Continuous
 62
     7
100
AcDbLine
 10
-0.00000000000011
 20
210.0000000000001
 30
0.0
 11
-0.00000000000011
 21
0.0
 31
0.0
  0
LINE
  5
1BA
330
1F
100
AcDbEntity
  8
1
  6
Continuous
 62
     7
100
AcDbLine
 10
-0.00000000000011
 20
0.0
 30
0.0
 11
297.0
 21
0.0
 31
0.0
  0
LINE
  5
1BB
330
1F
100
AcDbEntity
  8
1
  6
Continuous
 62
     7
100
AcDbLine
 10
148.4999999999997
 20
210.0000000000001
 30
0.0
 11
148.4999999999997
 21
195.0000000000001
 31
0.0
  0
LINE
  5
1BC
330
1F
100
AcDbEntity
  8
1
  6
Continuous
 62
     7
100
AcDbLine
 10
138.0
 20
20.0
 30
0.0
 11
138.0
 21
5.0
 31
0.0
  0
LINE
  5
1BD
330
1F
100
AcDbEntity
  8
1
  6
Continuous
 62
     7
100
AcDbLine
 10
265.3526013774854
 20
20.0
 30
0.0
 11
265.3526013774854
 21
5.0
 31
0.0
  0
LINE
  5
1BE
330
1F
100
AcDbEntity
  8
1
  6
Continuous
 62
     7
100
AcDbLine
 10
248.0
 20
20.0
 30
0.0
 11
248.0
 21
5.0
 31
0.0
  0
LINE
  5
1BF
330
1F
100
AcDbEntity
  8
1
  6
Continuous
 62
     7
100
AcDbLine
 10
108.0
 20
14.99999999999989
 30
0.0
 11
138.0
 21
14.99999999999989
 31
0.0
  0
LINE
  5
1C0
330
1F
100
AcDbEntity
  8
1
  6
Continuous
 62
     7
100
AcDbLine
 10
108.0
 20
9.99999999999986
 30
0.0
 11
138.0
 21
9.99999999999986
 31
0.0
  0
ARC
  5
1C1
330
1F
100
AcDbEntity
  8
0
  6
Continuous
 62
     7
100
AcDbCircle
 10
59.04116118110537
 20
92.682354764336
 30
0.0
 40
1.0
100
AcDbArc
 50
90.00000000000692
 51
180.0
  0
ARC
  5
1C2
330
1F
100
AcDbEntity
  8
0
  6
Continuous
 62
     7
100
AcDbCircle
 10
153.0411611811053
 20
92.682354764336
 30
0.0
 40
1.0
100
AcDbArc
 50
0.0
 51
90.0
  0
ARC
  5
1C3
330
1F
100
AcDbEntity
  8
0
  6
Continuous
 62
     7
100
AcDbCircle
 10
106.8411611811052
 20
121.5405577500926
 30
0.0
 40
0.2000000000002018
100
AcDbArc
 50
180.000000000631
 51
0.00000000063102
  0
ARC
  5
1C4
330
1F
100
AcDbEntity
  8
0
  6
Continuous
 62
     7
100
AcDbCircle
 10
113.2411611811056
 20
120.2323547643343
 30
0.0
 40
0.3000000000000966
100
AcDbArc
 50
270.0
 51
0.0
  0
ARC
  5
1C5
330
1F
100
AcDbEntity
  8
0
  6
Continuous
 62
     7
100
AcDbCircle
 10
98.84116118109011
 20
120.2323547643496
 30
0.0
 40
0.3000000000154159
100
AcDbArc
 50
180.0000000029203
 51
270.0000000029312
  0
ARC
  5
1C6
330
1F
100
AcDbEntity
  8
0
  6
Continuous
 62
     7
100
AcDbCircle
 10
106.0411611811092
 20
120.5073547643301
 30
0.0
 40
0.1999999999989281
100
AcDbArc
 50
240.2480640640872
 51
299.7524870756833
  0
ARC
  5
1C7
330
1F
100
AcDbEntity
  8
0
  6
Continuous
 62
     7
100
AcDbCircle
 10
105.8411611810955
 20
121.1975873740405
 30
0.0
 40
0.2000000000000462
100
AcDbArc
 50
240.0183606348362
 51
60.01836063486294
  0
ARC
  5
1C8
330
1F
100
AcDbEntity
  8
0
  6
Continuous
 62
     7
100
AcDbCircle
 10
108.4411611806804
 20
122.4550914363252
 30
0.0
 40
0.2000000000000093
100
AcDbArc
 50
299.9816395085118
 51
119.9816395084749
  0
ARC
  5
1C9
330
1F
100
AcDbEntity
  8
0
  6
Continuous
 62
     7
100
AcDbCircle
 10
104.6411611811053
 20
122.1138622510299
 30
0.0
 40
0.4000000000001052
100
AcDbArc
 50
180.0
 51
240.018360631051
  0
ARC
  5
1CA
330
1F
100
AcDbEntity
  8
0
  6
Continuous
 62
     7
100
AcDbCircle
 10
103.6411611811052
 20
122.455091436569
 30
0.0
 40
0.2000000000003013
100
AcDbArc
 50
179.999999999943
 51
0.0
  0
ARC
  5
1CB
330
1F
100
AcDbEntity
  8
0
  6
Continuous
 62
     7
100
AcDbCircle
 10
107.6411611811053
 20
121.997841491115
 30
0.0
 40
0.2000000000002018
100
AcDbArc
 50
180.000000000114
 51
299.9816393661927
  0
ARC
  5
1CC
330
1F
100
AcDbEntity
  8
0
  6
Continuous
 62
     7
100
AcDbCircle
 10
105.2411611811052
 20
122.4550914365692
 30
0.0
 40
0.2000000000004007
100
AcDbArc
 50
180.0
 51
0.0
  0
ARC
  5
1CD
330
1F
100
AcDbEntity
  8
0
  6
Continuous
 62
     7
100
AcDbCircle
 10
111.1411611811053
 20
123.3073547643313
 30
0.0
 40
0.100000000001869
100
AcDbArc
 50
299.7524870764416
 51
60.24751292489557
  0
ARC
  5
1CE
330
1F
100
AcDbEntity
  8
0
  6
Continuous
 62
     7
100
AcDbCircle
 10
106.0411611811053
 20
123.4885111325089
 30
0.0
 40
0.0999999999999054
100
AcDbArc
 50
209.9999999999636
 51
330.000000000069
  0
ARC
  5
1CF
330
1F
100
AcDbEntity
  8
0
  6
Continuous
 62
     7
100
AcDbCircle
 10
100.9412722613693
 20
123.3073547643313
 30
0.0
 40
0.1001110802620073
100
AcDbArc
 50
119.7519359337525
 51
240.248064064916
  0
ARC
  5
1D0
330
1F
100
AcDbEntity
  8
0
  6
Continuous
 62
     7
100
AcDbCircle
 10
108.4411611811054
 20
123.3073547643335
 30
0.0
 40
0.2000000000000028
100
AcDbArc
 50
270.0
 51
90.0
  0
ARC
  5
1D1
330
1F
100
AcDbEntity
  8
0
  6
Continuous
 62
     7
100
AcDbCircle
 10
107.6411611811053
 20
124.6168680375522
 30
0.0
 40
0.1999999999998805
100
AcDbArc
 50
60.0183606308044
 51
180.0
  0
ARC
  5
1D2
330
1F
100
AcDbEntity
  8
0
  6
Continuous
 62
     7
100
AcDbCircle
 10
104.4411611811054
 20
124.6211565536353
 30
0.0
 40
0.1999999999999034
100
AcDbArc
 50
0.0
 51
179.999999999601
  0
ARC
  5
1D3
330
1F
100
AcDbEntity
  8
0
  6
Continuous
 62
     7
100
AcDbCircle
 10
108.4411611815269
 20
124.1595842962968
 30
0.0
 40
0.1999999999999875
100
AcDbArc
 50
240.0183607732052
 51
60.01836077317699
  0
ARC
  5
1D4
330
1F
100
AcDbEntity
  8
0
  6
Continuous
 62
     7
100
AcDbCircle
 10
103.6411611811052
 20
124.1596180920969
 30
0.0
 40
0.2000000000000028
100
AcDbArc
 50
0.0
 51
180.0
  0
ARC
  5
1D5
330
1F
100
AcDbEntity
  8
0
  6
Continuous
 62
     7
100
AcDbCircle
 10
106.8411611811052
 20
125.0741517785641
 30
0.0
 40
0.1999999999999886
100
AcDbArc
 50
0.0
 51
150.0000001033936
  0
ARC
  5
1D6
330
1F
100
AcDbEntity
  8
0
  6
Continuous
 62
     7
100
AcDbCircle
 10
105.2411611811041
 20
125.0741517785638
 30
0.0
 40
0.1999999999987734
100
AcDbArc
 50
29.99999999990485
 51
179.9999999999145
  0
ARC
  5
1D7
330
1F
100
AcDbEntity
  8
0
  6
Continuous
 62
     7
100
AcDbCircle
 10
106.0411611811094
 20
126.1073547643335
 30
0.0
 40
0.199999999998104
100
AcDbArc
 50
60.24751292483981
 51
119.7519359356512
  0
ARC
  5
1D8
330
1F
100
AcDbEntity
  8
0
  6
Continuous
 62
     7
100
AcDbCircle
 10
60.79116118110551
 20
130.682354764335
 30
0.0
 40
0.5
100
AcDbArc
 50
90.0
 51
180.0
  0
ARC
  5
1D9
330
1F
100
AcDbEntity
  8
0
  6
Continuous
 62
     7
100
AcDbCircle
 10
151.2911611811055
 20
99.28235476433612
 30
0.0
 40
0.5
100
AcDbArc
 50
270.0
 51
0.0
  0
ARC
  5
1DA
330
1F
100
AcDbEntity
  8
0
  6
Continuous
 62
     7
100
AcDbCircle
 10
151.2911611811055
 20
130.682354764335
 30
0.0
 40
0.5
100
AcDbArc
 50
0.0
 51
90.0
  0
ARC
  5
1DB
330
1F
100
AcDbEntity
  8
0
  6
Continuous
 62
     7
100
AcDbCircle
 10
60.79116118110551
 20
99.28235476433612
 30
0.0
 40
0.5
100
AcDbArc
 50
180.0
 51
270.0
  0
ARC
  5
1DC
330
1F
100
AcDbEntity
  8
0
  6
Continuous
 62
     7
100
AcDbCircle
 10
210.4411783252619
 20
105.482354764336
 30
0.0
 40
6.7
100
AcDbArc
 50
12.97800248570964
 51
36.45729151707904
  0
ARC
  5
1DD
330
1F
100
AcDbEntity
  8
0
  6
Continuous
 62
     7
100
AcDbCircle
 10
216.2321384716216
 20
109.7607634151401
 30
0.0
 40
0.4999999999999695
100
AcDbArc
 50
133.0000000000118
 51
216.4572915170697
  0
ARC
  5
1DE
330
1F
100
AcDbEntity
  8
0
  6
Continuous
 62
     7
100
AcDbCircle
 10
215.4411783252634
 20
118.4823547643354
 30
0.0
 40
10.20000000000005
100
AcDbArc
 50
313.0000000000006
 51
89.99999999999042
  0
ARC
  5
1DF
330
1F
100
AcDbEntity
  8
0
  6
Continuous
 62
     7
100
AcDbCircle
 10
207.4271161068753
 20
126.2770594113953
 30
0.0
 40
3.000000000000324
100
AcDbArc
 50
227.4649206658628
 51
266.5952254413236
  0
ARC
  5
1E0
330
1F
100
AcDbEntity
  8
0
  6
Continuous
 62
     7
100
AcDbCircle
 10
210.4411783252619
 20
105.482354764336
 30
0.0
 40
6.700000000000318
100
AcDbArc
 50
132.9999999999933
 51
313.0000000000002
  0
ARC
  5
1E1
330
1F
100
AcDbEntity
  8
0
  6
Continuous
 62
     7
100
AcDbCircle
 10
232.4411783252709
 20
124.1823547643325
 30
0.0
 40
6.900000000000702
100
AcDbArc
 50
269.9999999999294
 51
273.7809280823634
  0
ARC
  5
1E2
330
1F
100
AcDbEntity
  8
0
  6
Continuous
 62
     7
100
AcDbCircle
 10
217.4572641044182
 20
107.0993087956885
 30
0.0
 40
0.4999999999990535
100
AcDbArc
 50
192.978002485623
 51
313.0000000006208
  0
ARC
  5
1E3
330
1F
100
AcDbEntity
  8
0
  6
Continuous
 62
     7
100
AcDbCircle
 10
232.4411783252635
 20
124.1823547643322
 30
0.0
 40
7.000000000000153
100
AcDbArc
 50
337.9999999999942
 51
345.9999999999943
  0
ARC
  5
1E4
330
1F
100
AcDbEntity
  8
0
  6
Continuous
 62
     7
100
AcDbCircle
 10
232.4411783252635
 20
124.1823547643322
 30
0.0
 40
7.000000000000189
100
AcDbArc
 50
25.99999999999336
 51
33.99999999999296
  0
ARC
  5
1E5
330
1F
100
AcDbEntity
  8
0
  6
Continuous
 62
     7
100
AcDbCircle
 10
232.4411783252611
 20
124.1823547643331
 30
0.0
 40
6.899999999999496
100
AcDbArc
 50
81.99999999997371
 51
83.42611475023374
  0
ARC
  5
1E6
330
1F
100
AcDbEntity
  8
0
  6
Continuous
 62
     7
100
AcDbCircle
 10
232.4411783252635
 20
124.1823547643322
 30
0.0
 40
7.000000000000068
100
AcDbArc
 50
17.99999999999344
 51
25.99999999999336
  0
ARC
  5
1E7
330
1F
100
AcDbEntity
  8
0
  6
Continuous
 62
     7
100
AcDbCircle
 10
232.4411783252635
 20
124.1823547643322
 30
0.0
 40
6.999999999999981
100
AcDbArc
 50
41.99999999999438
 51
49.99999999999436
  0
ARC
  5
1E8
330
1F
100
AcDbEntity
  8
0
  6
Continuous
 62
     7
100
AcDbCircle
 10
232.4411783252635
 20
124.1823547643322
 30
0.0
 40
6.99999999999995
100
AcDbArc
 50
305.9999999999929
 51
313.9999999999935
  0
ARC
  5
1E9
330
1F
100
AcDbEntity
  8
0
  6
Continuous
 62
     7
100
AcDbCircle
 10
232.4411783252635
 20
124.1823547643322
 30
0.0
 40
6.89999999999996
100
AcDbArc
 50
297.9999999999921
 51
305.9999999999931
  0
ARC
  5
1EA
330
1F
100
AcDbEntity
  8
0
  6
Continuous
 62
     7
100
AcDbCircle
 10
232.4411783252606
 20
124.1823547643289
 30
0.0
 40
6.899999999999539
100
AcDbArc
 50
314.0000000000305
 51
322.0000000000309
  0
ARC
  5
1EB
330
1F
100
AcDbEntity
  8
0
  6
Continuous
 62
     7
100
AcDbCircle
 10
232.4411783251601
 20
124.1823547643248
 30
0.0
 40
6.899999999999863
100
AcDbArc
 50
273.7809280832856
 51
274.0000000008536
  0
ARC
  5
1EC
330
1F
100
AcDbEntity
  8
0
  6
Continuous
 62
     7
100
AcDbCircle
 10
232.4411783252635
 20
124.1823547643322
 30
0.0
 40
7.000000000000463
100
AcDbArc
 50
273.9999999999915
 51
281.9999999999923
  0
ARC
  5
1ED
330
1F
100
AcDbEntity
  8
0
  6
Continuous
 62
     7
100
AcDbCircle
 10
232.4411783252659
 20
124.1823547643305
 30
0.0
 40
6.900000000000218
100
AcDbArc
 50
50.00000000001802
 51
58.00000000001882
  0
ARC
  5
1EE
330
1F
100
AcDbEntity
  8
0
  6
Continuous
 62
     7
100
AcDbCircle
 10
232.441178325275
 20
124.1823547643256
 30
0.0
 40
7.000000000000902
100
AcDbArc
 50
58.00000000010149
 51
66.00000000010174
  0
ARC
  5
1EF
330
1F
100
AcDbEntity
  8
0
  6
Continuous
 62
     7
100
AcDbCircle
 10
232.4411783252635
 20
124.1823547643322
 30
0.0
 40
6.899999999999986
100
AcDbArc
 50
281.9999999999936
 51
289.9999999999937
  0
ARC
  5
1F0
330
1F
100
AcDbEntity
  8
0
  6
Continuous
 62
     7
100
AcDbCircle
 10
232.4411783252635
 20
124.1823547643322
 30
0.0
 40
6.999999999999963
100
AcDbArc
 50
289.9999999999932
 51
297.9999999999931
  0
ARC
  5
1F1
330
1F
100
AcDbEntity
  8
0
  6
Continuous
 62
     7
100
AcDbCircle
 10
232.4411783252942
 20
124.1823547643252
 30
0.0
 40
7.00000000000224
100
AcDbArc
 50
74.00000000025298
 51
82.00000000025142
  0
ARC
  5
1F2
330
1F
100
AcDbEntity
  8
0
  6
Continuous
 62
     7
100
AcDbCircle
 10
232.4411783252611
 20
124.1823547643331
 30
0.0
 40
6.900000000000256
100
AcDbArc
 50
65.99999999997193
 51
73.99999999997203
  0
ARC
  5
1F3
330
1F
100
AcDbEntity
  8
0
  6
Continuous
 62
     7
100
AcDbCircle
 10
232.4411783252635
 20
124.1823547643322
 30
0.0
 40
6.899999999999909
100
AcDbArc
 50
1.99999999999366
 51
9.99999999999384
  0
ARC
  5
1F4
330
1F
100
AcDbEntity
  8
0
  6
Continuous
 62
     7
100
AcDbCircle
 10
232.4411783252635
 20
124.1823547643322
 30
0.0
 40
7.000000000000109
100
AcDbArc
 50
9.99999999999389
 51
17.99999999999344
  0
ARC
  5
1F5
330
1F
100
AcDbEntity
  8
0
  6
Continuous
 62
     7
100
AcDbCircle
 10
232.4411783252635
 20
124.1823547643322
 30
0.0
 40
7.000000000000063
100
AcDbArc
 50
353.9999999999941
 51
1.99999999999338
  0
ARC
  5
1F6
330
1F
100
AcDbEntity
  8
0
  6
Continuous
 62
     7
100
AcDbCircle
 10
207.9829207557701
 20
127.1823547643349
 30
0.0
 40
3.999999999999986
100
AcDbArc
 50
90.0
 51
203.5781784785182
  0
ARC
  5
1F7
330
1F
100
AcDbEntity
  8
0
  6
Continuous
 62
     7
100
AcDbCircle
 10
232.4411783252635
 20
124.1823547643322
 30
0.0
 40
6.89999999999998
100
AcDbArc
 50
17.9999999999936
 51
25.99999999999297
  0
ARC
  5
1F8
330
1F
100
AcDbEntity
  8
0
  6
Continuous
 62
     7
100
AcDbCircle
 10
232.4411783252635
 20
124.1823547643322
 30
0.0
 40
6.899999999999972
100
AcDbArc
 50
33.99999999999358
 51
41.99999999999482
  0
ARC
  5
1F9
330
1F
100
AcDbEntity
  8
0
  6
Continuous
 62
     7
100
AcDbCircle
 10
207.9411783252399
 20
127.1323547643342
 30
0.0
 40
1.550000000000807
100
AcDbArc
 50
89.99999999998529
 51
269.9999999999968
  0
ARC
  5
1FA
330
1F
100
AcDbEntity
  8
0
  6
Continuous
 62
     7
100
AcDbCircle
 10
210.441178325264
 20
121.7823547643366
 30
0.0
 40
1.5
100
AcDbArc
 50
0.0
 51
90.0
  0
ARC
  5
1FB
330
1F
100
AcDbEntity
  8
0
  6
Continuous
 62
     7
100
AcDbCircle
 10
232.4411783252635
 20
124.1823547643322
 30
0.0
 40
6.899999999999998
100
AcDbArc
 50
345.999999999994
 51
353.9999999999934
  0
ARC
  5
1FC
330
1F
100
AcDbEntity
  8
0
  6
Continuous
 62
     7
100
AcDbCircle
 10
232.4411783252635
 20
124.1823547643322
 30
0.0
 40
7.000000000000203
100
AcDbArc
 50
345.9999999999943
 51
353.9999999999941
  0
ARC
  5
1FD
330
1F
100
AcDbEntity
  8
0
  6
Continuous
 62
     7
100
AcDbCircle
 10
208.4411783252645
 20
127.382354764337
 30
0.0
 40
4.500000000000147
100
AcDbArc
 50
203.5781784785135
 51
227.4649206658568
  0
ARC
  5
1FE
330
1F
100
AcDbEntity
  8
0
  6
Continuous
 62
     7
100
AcDbCircle
 10
232.4411783252634
 20
124.1823547643305
 30
0.0
 40
7.000000000000265
100
AcDbArc
 50
2.0000000000073
 51
10.00000000000748
  0
ARC
  5
1FF
330
1F
100
AcDbEntity
  8
0
  6
Continuous
 62
     7
100
AcDbCircle
 10
214.4411783252634
 20
118.4823547643355
 30
0.0
 40
7.099999999997388
100
AcDbArc
 50
313.0000000000048
 51
89.99999999999358
  0
ARC
  5
200
330
1F
100
AcDbEntity
  8
0
  6
Continuous
 62
     7
100
AcDbCircle
 10
232.4411783252635
 20
124.1823547643322
 30
0.0
 40
6.90000000000002
100
AcDbArc
 50
329.9999999999944
 51
337.9999999999938
  0
ARC
  5
201
330
1F
100
AcDbEntity
  8
0
  6
Continuous
 62
     7
100
AcDbCircle
 10
232.4411783252635
 20
124.1823547643322
 30
0.0
 40
6.999999999999713
100
AcDbArc
 50
321.999999999994
 51
329.9999999999935
  0
ARC
  5
202
330
1F
100
AcDbEntity
  8
0
  6
Continuous
 62
     7
100
AcDbCircle
 10
232.4411783252635
 20
124.1823547643322
 30
0.0
 40
7.000000000000012
100
AcDbArc
 50
329.9999999999935
 51
337.9999999999942
  0
ARC
  5
203
330
1F
100
AcDbEntity
  8
0
  6
Continuous
 62
     7
100
AcDbCircle
 10
224.3374947721689
 20
92.682354764336
 30
0.0
 40
1.000000000000034
100
AcDbArc
 50
0.50000000000293
 51
89.99999999999349
  0
ARC
  5
204
330
1F
100
AcDbEntity
  8
0
  6
Continuous
 62
     7
100
AcDbCircle
 10
196.5448618783562
 20
92.682354764336
 30
0.0
 40
1.0
100
AcDbArc
 50
90.0
 51
179.4999999999969
  0
ARC
  5
205
330
1F
100
AcDbEntity
  8
0
  6
Continuous
 62
     7
100
AcDbCircle
 10
239.9411783252634
 20
127.1823547643313
 30
0.0
 40
0.5
100
AcDbArc
 50
270.0
 51
0.0
  0
ARC
  5
206
330
1F
100
AcDbEntity
  8
0
  6
Continuous
 62
     7
100
AcDbCircle
 10
239.9411783252634
 20
128.6823547643313
 30
0.0
 40
0.5
100
AcDbArc
 50
359.9999999999642
 51
90.0
  0
ARC
  5
207
330
1F
100
AcDbEntity
  8
1
  6
DASHED
 62
     7
100
AcDbCircle
 10
210.4411783252619
 20
105.482354764336
 30
0.0
 40
38.02985478255772
100
AcDbArc
 50
0.0
 51
57.99999999999979
  0
ARC
  5
208
330
1F
100
AcDbEntity
  8
1
  6
DASHED
 62
     7
100
AcDbCircle
 10
210.4411783252619
 20
105.482354764336
 30
0.0
 40
38.02985478255778
100
AcDbArc
 50
350.8496906002917
 51
0.0
  0
ARC
  5
209
102
{ACAD_REACTORS
330
2A5
102
}
330
1F
100
AcDbEntity
  8
1
  6
Continuous
 62
     7
100
AcDbCircle
 10
282.6763006887427
 20
10.84673060906323
 30
0.0
 40
0.3333333333333172
100
AcDbArc
 50
299.9816393688334
 51
119.9816393688323
  0
ARC
  5
20A
102
{ACAD_REACTORS
330
2A5
102
}
330
1F
100
AcDbEntity
  8
1
  6
Continuous
 62
     7
100
AcDbCircle
 10
282.6763006887427
 20
12.5
 30
0.0
 40
0.3333333333333695
100
AcDbArc
 50
270.0
 51
90.0
  0
ARC
  5
20B
102
{ACAD_REACTORS
330
2A5
102
}
330
1F
100
AcDbEntity
  8
1
  6
Continuous
 62
     7
100
AcDbCircle
 10
282.6763006887427
 20
14.15326939093666
 30
0.0
 40
0.3333333333333471
100
AcDbArc
 50
240.0183606311583
 51
60.01836063115638
  0
ARC
  5
20C
102
{ACAD_REACTORS
330
2A6
102
}
330
1F
100
AcDbEntity
  8
1
  6
Continuous
 62
     7
100
AcDbCircle
 10
274.6763006887427
 20
10.84673060906323
 30
0.0
 40
0.3333333333333712
100
AcDbArc
 50
180.0
 51
0.0
  0
ARC
  5
20D
102
{ACAD_REACTORS
330
2A6
102
}
330
1F
100
AcDbEntity
  8
1
  6
Continuous
 62
     7
100
AcDbCircle
 10
274.6763006887427
 20
14.15326939093666
 30
0.0
 40
0.3333333333332007
100
AcDbArc
 50
0.0
 51
180.0
  0
ARC
  5
20E
102
{ACAD_REACTORS
330
2A7
102
}
330
1F
100
AcDbEntity
  8
1
  6
Continuous
 62
     7
100
AcDbCircle
 10
278.3429673554093
 20
8.7313459936787
 30
0.0
 40
0.3333333333333709
100
AcDbArc
 50
240.0183606311493
 51
60.01836063115783
  0
ARC
  5
20F
102
{ACAD_REACTORS
330
2A7
102
}
330
1F
100
AcDbEntity
  8
1
  6
Continuous
 62
     7
100
AcDbCircle
 10
276.0096340220759
 20
14.92250016016737
 30
0.0
 40
0.3333333333334281
100
AcDbArc
 50
0.0
 51
180.0
  0
ARC
  5
210
102
{ACAD_REACTORS
330
2A8
102
}
330
1F
100
AcDbEntity
  8
1
  6
Continuous
 62
     7
100
AcDbCircle
 10
280.078001142934
 20
15.73121731203457
 30
0.0
 40
0.2649662124753149
100
AcDbArc
 50
0.0
 51
149.9999999999685
  0
ARC
  5
211
102
{ACAD_REACTORS
330
2A8
102
}
330
1F
100
AcDbEntity
  8
1
  6
Continuous
 62
     7
100
AcDbCircle
 10
280.0096340220761
 20
9.3082690706018
 30
0.0
 40
0.3333333333334281
100
AcDbArc
 50
180.0
 51
0.0
  0
ARC
  5
212
102
{ACAD_REACTORS
330
2A8
102
}
330
1F
100
AcDbEntity
  8
1
  6
Continuous
 62
     7
100
AcDbCircle
 10
277.3429673554093
 20
10.84758507263291
 30
0.0
 40
0.3333333333334281
100
AcDbArc
 50
180.0
 51
0.0
  0
ARC
  5
213
102
{ACAD_REACTORS
330
2A8
102
}
330
1F
100
AcDbEntity
  8
1
  6
Continuous
 62
     7
100
AcDbCircle
 10
277.2746002345513
 20
15.73121731203457
 30
0.0
 40
0.2649662124752854
100
AcDbArc
 50
30.00000000001921
 51
180.0
  0
CIRCLE
  5
214
330
1F
100
AcDbEntity
  8
0
  6
Continuous
 62
     7
100
AcDbCircle
 10
210.4411783252619
 20
105.482354764336
 30
0.0
 40
2.499999999999966
  0
CIRCLE
  5
215
330
1F
100
AcDbEntity
  8
0
  6
Continuous
 62
     7
100
AcDbCircle
 10
210.4411783252619
 20
105.482354764336
 30
0.0
 40
4.199999999999989
  0
SPLINE
  5
216
330
1F
100
AcDbEntity
  8
0
  6
Continuous
 62
     7
100
AcDbSpline
210
0.0
220
0.0
230
1.0
 70
     8
 71
     3
 72
     9
 73
     5
 74
     3
 42
0.000000001
 43
0.0000000001
 44
0.00000001
 40
0.0
 40
0.0
 40
0.0
 40
0.0
 40
0.8377186045700148
 40
1.680898627533392
 40
1.680898627533392
 40
1.680898627533392
 40
1.680898627533392
 10
65.92387655269067
 20
117.3353215591975
 30
0.0
 10
65.64630288061258
 20
117.3042078504515
 30
0.0
 10
65.08934592225287
 20
117.2417776103151
 30
0.0
 10
64.52961056484128
 20
117.213560698362
 30
0.0
 10
64.24883356557496
 20
117.1994064125154
 30
0.0
 11
65.92387655269067
 21
117.3353215591975
 31
0.0
 11
65.09046544201006
 21
117.2504782838071
 31
0.0
 11
64.24883356557496
 21
117.1994064125154
 31
0.0
  0
SPLINE
  5
217
330
1F
100
AcDbEntity
  8
0
  6
Continuous
 62
     7
100
AcDbSpline
210
0.0
220
0.0
230
1.0
 70
     8
 71
     3
 72
     9
 73
     5
 74
     3
 42
0.000000001
 43
0.0000000001
 44
0.00000001
 40
0.0
 40
0.0
 40
0.0
 40
0.0
 40
0.6105709131690781
 40
1.197046743818277
 40
1.197046743818277
 40
1.197046743818277
 40
1.197046743818277
 10
73.45462764814579
 20
128.0967050886289
 30
0.0
 10
73.60707329140888
 20
127.9615446124932
 30
0.0
 10
73.90594857104804
 20
127.6965575108385
 30
0.0
 10
74.17067905832853
 20
127.3974810217492
 30
0.0
 10
74.3003799449175
 20
127.2509527918572
 30
0.0
 11
73.45462764814579
 21
128.0967050886289
 31
0.0
 11
73.90308126779773
 21
127.6823547639984
 31
0.0
 11
74.3003799449175
 21
127.2509527918572
 31
0.0
  0
SPLINE
  5
218
330
1F
100
AcDbEntity
  8
0
  6
Continuous
 62
     7
100
AcDbSpline
210
0.0
220
0.0
230
1.0
 70
     8
 71
     3
 72
    17
 73
    13
 74
    11
 42
0.000000001
 43
0.0000000001
 44
0.00000001
 40
0.0
 40
0.0
 40
0.0
 40
0.0
 40
0.0767685038277343
 40
0.138386018397432
 40
0.2166342952078053
 40
0.2764387282023857
 40
0.3413138981799581
 40
0.4040605472250343
 40
0.4409806078197764
 40
0.4786434003205268
 40
0.5128769860135048
 40
0.5534334332292474
 40
0.5534334332292474
 40
0.5534334332292474
 40
0.5534334332292474
 10
63.87449066356521
 20
116.8365926700028
 30
0.0
 10
63.848878729893
 20
116.837327940607
 30
0.0
 10
63.8027096202912
 20
116.8386533827577
 30
0.0
 10
63.73137126622105
 20
116.8510391900496
 30
0.0
 10
63.66765185429294
 20
116.8716192484541
 30
0.0
 10
63.60815355550738
 20
116.9045749472428
 30
0.0
 10
63.56053584916671
 20
116.9459177746208
 30
0.0
 10
63.52874921472399
 20
116.9913231024547
 30
0.0
 10
63.51002112774876
 20
117.0332389261173
 30
0.0
 10
63.49983742551434
 20
117.0681494762331
 30
0.0
 10
63.49342782747171
 20
117.1051877685136
 30
0.0
 10
63.4926630009307
 20
117.1301353999113
 30
0.0
 10
63.49224826484885
 20
117.143663771099
 30
0.0
 11
63.87449066356521
 21
116.8365926700028
 31
0.0
 11
63.79783894007012
 21
116.8408254408338
 31
0.0
 11
63.73712416542526
 21
116.851334214909
 31
0.0
 11
63.66291575239936
 21
116.8761516376586
 31
0.0
 11
63.61076301060962
 21
116.9054204243663
 31
0.0
 11
63.56200275384268
 21
116.9482132419157
 31
0.0
 11
63.52600410124569
 21
116.9996062295408
 31
0.0
 11
63.51090439890853
 21
117.0332973253678
 31
0.0
 11
63.50023835707475
 21
117.0694182553683
 31
0.0
 11
63.49452111031952
 21
117.1031710566269
 31
0.0
 11
63.49224826484885
 21
117.143663771099
 31
0.0
  0
SPLINE
  5
219
330
1F
100
AcDbEntity
  8
0
  6
Continuous
 62
     7
100
AcDbSpline
210
0.0
220
0.0
230
1.0
 70
     8
 71
     3
 72
    11
 73
     7
 74
     5
 42
0.000000001
 43
0.0000000001
 44
0.00000001
 40
0.0
 40
0.0
 40
0.0
 40
0.0
 40
0.1696989958763979
 40
0.3433920898379094
 40
0.519294782111664
 40
0.6991137350298282
 40
0.6991137350298282
 40
0.6991137350298282
 40
0.6991137350298282
 10
63.49224826608975
 20
117.2823547643342
 30
0.0
 10
63.54881489134713
 20
117.2825677233929
 30
0.0
 10
63.6632795146906
 20
117.2829986688778
 30
0.0
 10
63.83635306336082
 20
117.2862035548089
 30
0.0
 10
64.01276447529648
 20
117.2908869028157
 30
0.0
 10
64.13126075737522
 20
117.2951950177289
 30
0.0
 10
64.19116118110537
 20
117.2973727974774
 30
0.0
 11
63.49224826608975
 21
117.2823547643342
 31
0.0
 11
63.66194400615294
 21
117.2834059690583
 31
0.0
 11
63.83561093500441
 21
117.2864207250669
 31
0.0
 11
64.01145041099517
 21
117.2911362170166
 31
0.0
 11
64.19116118110537
 21
117.2973727974774
 31
0.0
  0
SPLINE
  5
21A
330
1F
100
AcDbEntity
  8
0
  6
Continuous
 62
     7
100
AcDbSpline
210
0.0
220
0.0
230
1.0
 70
     8
 71
     3
 72
     9
 73
     5
 74
     3
 42
0.000000001
 43
0.0000000001
 44
0.00000001
 40
0.0
 40
0.0
 40
0.0
 40
0.0
 40
0.7088014569756852
 40
1.440374069021871
 40
1.440374069021871
 40
1.440374069021871
 40
1.440374069021871
 10
71.82536640956937
 20
119.146976161963
 30
0.0
 10
71.61714483777463
 20
119.0350881084958
 30
0.0
 10
71.19401230039273
 20
118.80771747233
 30
0.0
 10
70.75339186463776
 20
118.6164045217243
 30
0.0
 10
70.52959871517533
 20
118.5192358037092
 30
0.0
 11
71.82536640956937
 21
119.146976161963
 31
0.0
 11
71.19646685722691
 21
118.8200436630145
 31
0.0
 11
70.52959871517533
 21
118.5192358037092
 31
0.0
  0
SPLINE
  5
21B
330
1F
100
AcDbEntity
  8
0
  6
Continuous
 62
     7
100
AcDbSpline
210
0.0
220
0.0
230
1.0
 70
     8
 71
     3
 72
     9
 73
     5
 74
     3
 42
0.000000001
 43
0.0000000001
 44
0.00000001
 40
0.0
 40
0.0
 40
0.0
 40
0.0
 40
0.8071893693354696
 40
1.624931971542697
 40
1.624931971542697
 40
1.624931971542697
 40
1.624931971542697
 10
67.49061550042256
 20
117.698475680911
 30
0.0
 10
67.22662918533248
 20
117.6460669850609
 30
0.0
 10
66.69520518181537
 20
117.5405644192229
 30
0.0
 10
66.15814118902014
 20
117.4691003886531
 30
0.0
 10
65.88786519149232
 20
117.4331363192708
 30
0.0
 11
67.49061550042256
 21
117.698475680911
 31
0.0
 11
66.69726481118695
 21
117.5496490629949
 31
0.0
 11
65.88786519149232
 21
117.4331363192708
 31
0.0
  0
SPLINE
  5
21C
330
1F
100
AcDbEntity
  8
0
  6
Continuous
 62
     7
100
AcDbSpline
210
0.0
220
0.0
230
1.0
 70
     8
 71
     3
 72
     9
 73
     5
 74
     3
 42
0.000000001
 43
0.0000000001
 44
0.00000001
 40
0.0
 40
0.0
 40
0.0
 40
0.0
 40
0.5556047744252676
 40
1.133702377970469
 40
1.133702377970469
 40
1.133702377970469
 40
1.133702377970469
 10
74.48399512286733
 20
121.5975692697636
 30
0.0
 10
74.37392805928424
 20
121.4483557095377
 30
0.0
 10
74.14933801595002
 20
121.1438879135789
 30
0.0
 10
73.8869024436235
 20
120.8713349736453
 30
0.0
 10
73.75308126880361
 20
120.7323547643336
 30
0.0
 11
74.48399512286733
 21
121.5975692697636
 31
0.0
 11
74.14470424851561
 21
121.1575938517786
 31
0.0
 11
73.75308126880361
 21
120.7323547643336
 31
0.0
  0
SPLINE
  5
21D
330
1F
100
AcDbEntity
  8
0
  6
Continuous
 62
     7
100
AcDbSpline
210
0.0
220
0.0
230
1.0
 70
     8
 71
     3
 72
    17
 73
    13
 74
    11
 42
0.000000001
 43
0.0000000001
 44
0.00000001
 40
0.0
 40
0.0
 40
0.0
 40
0.0
 40
0.0722829285806883
 40
0.1380981768785953
 40
0.2165131416712544
 40
0.2764231511425095
 40
0.3412985110830559
 40
0.4040443518222381
 40
0.4383248530899631
 40
0.4786350339011469
 40
0.515339399231419
 40
0.553433630089655
 40
0.553433630089655
 40
0.553433630089655
 40
0.553433630089655
 10
148.2078315533893
 20
116.8365926700062
 30
0.0
 10
148.2319428170669
 20
116.8372506807575
 30
0.0
 10
148.2780079332581
 20
116.8385078393112
 30
0.0
 10
148.349386508112
 20
116.8505484022592
 30
0.0
 10
148.4145422615808
 20
116.8715556383928
 30
0.0
 10
148.4741299181231
 20
116.904542663081
 30
0.0
 10
148.5217761017517
 20
116.9459042721082
 30
0.0
 10
148.5530573467202
 20
116.990583317386
 30
0.0
 10
148.5719915252797
 20
117.0323840719036
 30
0.0
 10
148.5825708389676
 20
117.0680619132466
 30
0.0
 10
148.5889801739526
 20
117.1060110040783
 30
0.0
 10
148.5897049706938
 20
117.1309583382408
 30
0.0
 10
148.5900740961213
 20
117.1436637843739
 30
0.0
 11
148.2078315533893
 21
116.8365926700062
 31
0.0
 11
148.280017990664
 21
116.8403262907438
 31
0.0
 11
148.3449173264934
 21
116.8512681013571
 31
0.0
 11
148.4192960537119
 21
116.8761017851849
 31
0.0
 11
148.4715470549174
 21
116.9054112077869
 31
0.0
 11
148.5203100777553
 21
116.9482011613256
 31
0.0
 11
148.5563114715183
 21
116.999591241831
 31
0.0
 11
148.5704857710169
 21
117.0308040927645
 31
0.0
 11
148.5820828229655
 21
117.0694100400726
 31
0.0
 11
148.5880744476654
 21
117.1056220684632
 31
0.0
 11
148.5900740961213
 21
117.1436637843739
 31
0.0
  0
SPLINE
  5
21E
330
1F
100
AcDbEntity
  8
0
  6
Continuous
 62
     7
100
AcDbSpline
210
0.0
220
0.0
230
1.0
 70
     8
 71
     3
 72
     9
 73
     5
 74
     3
 42
0.000000001
 43
0.0000000001
 44
0.00000001
 40
0.0
 40
0.0
 40
0.0
 40
0.0
 40
0.0228116845154464
 40
0.0456253432571231
 40
0.0456253432571231
 40
0.0456253432571231
 40
0.0456253432571231
 10
64.23675138990711
 20
117.2991628175414
 30
0.0
 10
64.2291535982814
 20
117.2988581845259
 30
0.0
 10
64.21395735669259
 20
117.2982489121149
 30
0.0
 10
64.19876012575752
 20
117.2976648374524
 30
0.0
 10
64.19116118110537
 20
117.2973727974774
 30
0.0
 11
64.23675138990711
 21
117.2991628175414
 31
0.0
 11
64.21395776731701
 21
117.298255227378
 31
0.0
 11
64.19116118110537
 21
117.2973727974774
 31
0.0
  0
SPLINE
  5
21F
330
1F
100
AcDbEntity
  8
0
  6
Continuous
 62
     7
100
AcDbSpline
210
0.0
220
0.0
230
1.0
 70
     8
 71
     3
 72
     9
 73
     5
 74
     3
 42
0.000000001
 43
0.0000000001
 44
0.00000001
 40
0.0
 40
0.0
 40
0.0
 40
0.0
 40
0.7902017143972776
 40
1.59591205748979
 40
1.59591205748979
 40
1.59591205748979
 40
1.59591205748979
 10
69.09512146498105
 20
118.0017216143213
 30
0.0
 10
68.84231759754005
 20
117.9274648504174
 30
0.0
 10
68.33174828720914
 20
117.7774939664627
 30
0.0
 10
67.8121692235082
 20
117.6625412875421
 30
0.0
 10
67.54985512696783
 20
117.6045064188325
 30
0.0
 11
69.09512146498105
 21
118.0017216143213
 31
0.0
 11
68.33450098608228
 21
117.7875365614482
 31
0.0
 11
67.54985512696783
 21
117.6045064188325
 31
0.0
  0
SPLINE
  5
220
330
1F
100
AcDbEntity
  8
0
  6
Continuous
 62
     7
100
AcDbSpline
210
0.0
220
0.0
230
1.0
 70
     8
 71
     3
 72
     9
 73
     5
 74
     3
 42
0.000000001
 43
0.0000000001
 44
0.00000001
 40
0.0
 40
0.0
 40
0.0
 40
0.0
 40
0.7421540897495704
 40
1.503651190640068
 40
1.503651190640068
 40
1.503651190640068
 40
1.503651190640068
 10
70.4277913230843
 20
118.6001375031467
 30
0.0
 10
70.19829821086817
 20
118.5075176812814
 30
0.0
 10
69.73333062339474
 20
118.3198640747624
 30
0.0
 10
69.25569604823362
 20
118.1672865215926
 30
0.0
 10
69.0138066050356
 20
118.0900163736072
 30
0.0
 11
70.4277913230843
 21
118.6001375031467
 31
0.0
 11
69.73622618617077
 21
118.330822901415
 31
0.0
 11
69.0138066050356
 21
118.0900163736072
 31
0.0
  0
SPLINE
  5
221
330
1F
100
AcDbEntity
  8
0
  6
Continuous
 62
     7
100
AcDbSpline
210
0.0
220
0.0
230
1.0
 70
     8
 71
     3
 72
     9
 73
     5
 74
     3
 42
0.000000001
 43
0.0000000001
 44
0.00000001
 40
0.0
 40
0.0
 40
0.0
 40
0.0
 40
0.7614971008903895
 40
1.50365119063996
 40
1.50365119063996
 40
1.50365119063996
 40
1.50365119063996
 10
143.0685157571754
 20
118.0900163736072
 30
0.0
 10
142.8266263139774
 20
118.1672865215927
 30
0.0
 10
142.3489917388163
 20
118.3198640747625
 30
0.0
 10
141.8840241513429
 20
118.5075176812814
 30
0.0
 10
141.6545310391268
 20
118.6001375031467
 30
0.0
 11
143.0685157571754
 21
118.0900163736072
 31
0.0
 11
142.3460961760403
 21
118.330822901415
 31
0.0
 11
141.6545310391268
 21
118.6001375031467
 31
0.0
  0
SPLINE
  5
222
330
1F
100
AcDbEntity
  8
0
  6
Continuous
 62
     7
100
AcDbSpline
210
0.0
220
0.0
230
1.0
 70
     8
 71
     3
 72
     9
 73
     5
 74
     3
 42
0.000000001
 43
0.0000000001
 44
0.00000001
 40
0.0
 40
0.0
 40
0.0
 40
0.0
 40
0.8431800229631926
 40
1.680898627533391
 40
1.680898627533391
 40
1.680898627533391
 40
1.680898627533391
 10
147.833488796636
 20
117.1994064125154
 30
0.0
 10
147.5527117973698
 20
117.213560698362
 30
0.0
 10
146.9929764399581
 20
117.2417776103151
 30
0.0
 10
146.4360194815984
 20
117.3042078504515
 30
0.0
 10
146.1584458095203
 20
117.3353215591975
 30
0.0
 11
147.833488796636
 21
117.1994064125154
 31
0.0
 11
146.9918569202011
 21
117.2504782838071
 31
0.0
 11
146.1584458095203
 21
117.3353215591975
 31
0.0
  0
SPLINE
  5
223
330
1F
100
AcDbEntity
  8
0
  6
Continuous
 62
     7
100
AcDbSpline
210
0.0
220
0.0
230
1.0
 70
     8
 71
     3
 72
     9
 73
     5
 74
     3
 42
0.000000001
 43
0.0000000001
 44
0.00000001
 40
0.0
 40
0.0
 40
0.0
 40
0.0
 40
0.8177426022070725
 40
1.624931971542556
 40
1.624931971542556
 40
1.624931971542556
 40
1.624931971542556
 10
146.1944571707186
 20
117.4331363192708
 30
0.0
 10
145.9241811731909
 20
117.4691003886531
 30
0.0
 10
145.3871171803957
 20
117.540564419223
 30
0.0
 10
144.8556931768786
 20
117.6460669850608
 30
0.0
 10
144.5917068617885
 20
117.698475680911
 30
0.0
 11
146.1944571707186
 21
117.4331363192708
 31
0.0
 11
145.3850575510241
 21
117.5496490629949
 31
0.0
 11
144.5917068617885
 21
117.698475680911
 31
0.0
  0
SPLINE
  5
224
330
1F
100
AcDbEntity
  8
0
  6
Continuous
 62
     7
100
AcDbSpline
210
0.0
220
0.0
230
1.0
 70
     8
 71
     3
 72
     9
 73
     5
 74
     3
 42
0.000000001
 43
0.0000000001
 44
0.00000001
 40
0.0
 40
0.0
 40
0.0
 40
0.0
 40
0.0228136587414922
 40
0.0456253432567823
 40
0.0456253432567823
 40
0.0456253432567823
 40
0.0456253432567823
 10
147.8911611811055
 20
117.2973727974774
 30
0.0
 10
147.8835622364535
 20
117.2976648374524
 30
0.0
 10
147.8683650055184
 20
117.2982489121149
 30
0.0
 10
147.8531687639297
 20
117.2988581845258
 30
0.0
 10
147.8455709723041
 20
117.2991628175414
 30
0.0
 11
147.8911611811055
 21
117.2973727974774
 31
0.0
 11
147.868364594894
 21
117.298255227378
 31
0.0
 11
147.8455709723041
 21
117.2991628175414
 31
0.0
  0
SPLINE
  5
225
330
1F
100
AcDbEntity
  8
0
  6
Continuous
 62
     7
100
AcDbSpline
210
0.0
220
0.0
230
1.0
 70
     8
 71
     3
 72
     9
 73
     5
 74
     3
 42
0.000000001
 43
0.0000000001
 44
0.00000001
 40
0.0
 40
0.0
 40
0.0
 40
0.0
 40
0.8057103430924688
 40
1.595912057489848
 40
1.595912057489848
 40
1.595912057489848
 40
1.595912057489848
 10
144.5324672352433
 20
117.6045064188326
 30
0.0
 10
144.2701531387029
 20
117.6625412875422
 30
0.0
 10
143.750574075002
 20
117.7774939664627
 30
0.0
 10
143.240004764671
 20
117.9274648504174
 30
0.0
 10
142.98720089723
 20
118.0017216143213
 30
0.0
 11
144.5324672352433
 21
117.6045064188326
 31
0.0
 11
143.7478213761289
 21
117.7875365614482
 31
0.0
 11
142.98720089723
 21
118.0017216143213
 31
0.0
  0
SPLINE
  5
226
330
1F
100
AcDbEntity
  8
0
  6
Continuous
 62
     7
100
AcDbSpline
210
0.0
220
0.0
230
1.0
 70
     8
 71
     3
 72
    11
 73
     7
 74
     5
 42
0.000000001
 43
0.0000000001
 44
0.00000001
 40
0.0
 40
0.0
 40
0.0
 40
0.0
 40
0.1798189530923948
 40
0.3557216452690723
 40
0.5294147389463223
 40
0.6991137350300041
 40
0.6991137350300041
 40
0.6991137350300041
 40
0.6991137350300041
 10
147.8911611811055
 20
117.2973727974774
 30
0.0
 10
147.9510616048937
 20
117.2951950177269
 30
0.0
 10
148.0695578869982
 20
117.2908869028132
 30
0.0
 10
148.2459692988647
 20
117.286203554809
 30
0.0
 10
148.419042847477
 20
117.2829986688785
 30
0.0
 10
148.5335074707948
 20
117.2825677233934
 30
0.0
 10
148.5900740961213
 20
117.2823547643342
 30
0.0
 11
147.8911611811055
 21
117.2973727974774
 31
0.0
 11
148.0708719513898
 21
117.2911362170113
 31
0.0
 11
148.2467114272836
 21
117.2864207250652
 31
0.0
 11
148.4203783558508
 21
117.2834059690608
 31
0.0
 11
148.5900740961213
 21
117.2823547643342
 31
0.0
  0
SPLINE
  5
227
330
1F
100
AcDbEntity
  8
0
  6
Continuous
 62
     7
100
AcDbSpline
210
0.0
220
0.0
230
1.0
 70
     8
 71
     3
 72
     9
 73
     5
 74
     3
 42
0.000000001
 43
0.0000000001
 44
0.00000001
 40
0.0
 40
0.0
 40
0.0
 40
0.0
 40
0.6353555390164445
 40
1.245926453180433
 40
1.245926453180433
 40
1.245926453180433
 40
1.245926453180433
 10
139.1251184583052
 20
119.8727244370539
 30
0.0
 10
138.956695688304
 20
120.0014341220232
 30
0.0
 10
138.62642017564
 20
120.2538326630313
 30
0.0
 10
138.3263108052839
 20
120.5414210119661
 30
0.0
 10
138.1792410934075
 20
120.6823547643334
 30
0.0
 11
139.1251184583052
 21
119.8727244370539
 31
0.0
 11
138.627694715028
 21
120.2680044404132
 31
0.0
 11
138.1792410934075
 21
120.6823547643334
 31
0.0
  0
SPLINE
  5
228
330
1F
100
AcDbEntity
  8
0
  6
Continuous
 62
     7
100
AcDbSpline
210
0.0
220
0.0
230
1.0
 70
     8
 71
     3
 72
     9
 73
     5
 74
     3
 42
0.000000001
 43
0.0000000001
 44
0.00000001
 40
0.0
 40
0.0
 40
0.0
 40
0.0
 40
0.6105709141640565
 40
1.24592645318041
 40
1.24592645318041
 40
1.24592645318041
 40
1.24592645318041
 10
73.90308126880348
 20
120.6823547643335
 30
0.0
 10
73.75601155692705
 20
120.5414210119661
 30
0.0
 10
73.45590218657102
 20
120.2538326630313
 30
0.0
 10
73.12562667390705
 20
120.0014341220232
 30
0.0
 10
72.9572039039059
 20
119.8727244370539
 30
0.0
 11
73.90308126880348
 21
120.6823547643335
 31
0.0
 11
73.45462764718296
 21
120.2680044404132
 31
0.0
 11
72.9572039039059
 21
119.8727244370539
 31
0.0
  0
SPLINE
  5
229
330
1F
100
AcDbEntity
  8
0
  6
Continuous
 62
     7
100
AcDbSpline
210
0.0
220
0.0
230
1.0
 70
     8
 71
     3
 72
     9
 73
     5
 74
     3
 42
0.000000001
 43
0.0000000001
 44
0.00000001
 40
0.0
 40
0.0
 40
0.0
 40
0.0
 40
0.6508643306540036
 40
1.325999346457096
 40
1.325999346457096
 40
1.325999346457096
 40
1.325999346457096
 10
72.82071643769007
 20
119.9342905845865
 30
0.0
 10
72.64381888454712
 20
119.8084525572314
 30
0.0
 10
72.28342726986014
 20
119.5520840279644
 30
0.0
 10
71.90017941087784
 20
119.3313150606987
 30
0.0
 10
71.70504805041571
 20
119.2189101419969
 30
0.0
 11
72.82071643769007
 21
119.9342905845865
 31
0.0
 11
72.28451697420323
 21
119.5653535808997
 31
0.0
 11
71.70504805041571
 21
119.2189101419969
 31
0.0
  0
SPLINE
  5
22A
330
1F
100
AcDbEntity
  8
0
  6
Continuous
 62
     7
100
AcDbSpline
210
0.0
220
0.0
230
1.0
 70
     8
 71
     3
 72
     9
 73
     5
 74
     3
 42
0.000000001
 43
0.0000000001
 44
0.00000001
 40
0.0
 40
0.0
 40
0.0
 40
0.0
 40
0.675135015803024
 40
1.325999346457047
 40
1.325999346457047
 40
1.325999346457047
 40
1.325999346457047
 10
140.3772743117954
 20
119.2189101419969
 30
0.0
 10
140.1821429513333
 20
119.3313150606987
 30
0.0
 10
139.798895092351
 20
119.5520840279644
 30
0.0
 10
139.4385034776641
 20
119.8084525572313
 30
0.0
 10
139.2616059245211
 20
119.9342905845865
 30
0.0
 11
140.3772743117954
 21
119.2189101419969
 31
0.0
 11
139.797805388008
 21
119.5653535808997
 31
0.0
 11
139.2616059245211
 21
119.9342905845865
 31
0.0
  0
SPLINE
  5
22B
330
1F
100
AcDbEntity
  8
0
  6
Continuous
 62
     7
100
AcDbSpline
210
0.0
220
0.0
230
1.0
 70
     8
 71
     3
 72
     9
 73
     5
 74
     3
 42
0.000000001
 43
0.0000000001
 44
0.00000001
 40
0.0
 40
0.0
 40
0.0
 40
0.0
 40
0.7315726120461494
 40
1.440374069021924
 40
1.440374069021924
 40
1.440374069021924
 40
1.440374069021924
 10
141.5527236470358
 20
118.5192358037092
 30
0.0
 10
141.3289304975733
 20
118.6164045217242
 30
0.0
 10
140.8883100618183
 20
118.8077174723299
 30
0.0
 10
140.4651775244365
 20
119.0350881084958
 30
0.0
 10
140.2569559526417
 20
119.146976161963
 30
0.0
 11
141.5527236470358
 21
118.5192358037092
 31
0.0
 11
140.8858555049842
 21
118.8200436630144
 31
0.0
 11
140.2569559526417
 21
119.146976161963
 31
0.0
  0
SPLINE
  5
22C
330
1F
100
AcDbEntity
  8
0
  6
Continuous
 62
     7
100
AcDbSpline
210
0.0
220
0.0
230
1.0
 70
     8
 71
     3
 72
     9
 73
     5
 74
     3
 42
0.000000001
 43
0.0000000001
 44
0.00000001
 40
0.0
 40
0.0
 40
0.0
 40
0.0
 40
0.5020003611217738
 40
0.9928532183193142
 40
0.9928532183193142
 40
0.9928532183193142
 40
0.9928532183193142
 10
137.0830907690964
 20
122.5130936846958
 30
0.0
 10
137.0206691425008
 20
122.6687185903776
 30
0.0
 10
136.8972120532927
 20
122.9765125754173
 30
0.0
 10
136.8278512057498
 20
123.3007900703994
 30
0.0
 10
136.7935601744864
 20
123.4611083677866
 30
0.0
 11
137.0830907690964
 21
122.5130936846958
 31
0.0
 11
136.9096553535912
 21
122.9841823385464
 31
0.0
 11
136.7935601744864
 21
123.4611083677866
 31
0.0
  0
SPLINE
  5
22D
330
1F
100
AcDbEntity
  8
0
  6
Continuous
 62
     7
100
AcDbSpline
210
0.0
220
0.0
230
1.0
 70
     8
 71
     3
 72
     9
 73
     5
 74
     3
 42
0.000000001
 43
0.0000000001
 44
0.00000001
 40
0.0
 40
0.0
 40
0.0
 40
0.0
 40
0.4839508923927445
 40
0.9748037492117863
 40
0.9748037492117863
 40
0.9748037492117863
 40
0.9748037492117863
 10
136.7353708392016
 20
124.4231612915807
 30
0.0
 10
136.7501110371166
 20
124.584153549096
 30
0.0
 10
136.779801673005
 20
124.908434085093
 30
0.0
 10
136.8661669535828
 20
125.2224217743002
 30
0.0
 10
136.9096553524638
 20
125.3805271902354
 30
0.0
 11
136.7353708392016
 21
124.4231612915807
 31
0.0
 11
136.793560175625
 21
124.9036011608113
 31
0.0
 11
136.9096553524638
 21
125.3805271902354
 31
0.0
  0
SPLINE
  5
22E
330
1F
100
AcDbEntity
  8
0
  6
Continuous
 62
     7
100
AcDbSpline
210
0.0
220
0.0
230
1.0
 70
     8
 71
     3
 72
     9
 73
     5
 74
     3
 42
0.000000001
 43
0.0000000001
 44
0.00000001
 40
0.0
 40
0.0
 40
0.0
 40
0.0
 40
0.4909646732533817
 40
0.9795576264626592
 40
0.9795576264626592
 40
0.9795576264626592
 40
0.9795576264626592
 10
136.6213039292848
 20
123.4506555214599
 30
0.0
 10
136.5966950777539
 20
123.6128255655855
 30
0.0
 10
136.5475962733782
 20
123.9363822551879
 30
0.0
 10
136.557387500256
 20
124.2634922469515
 30
0.0
 10
136.5622712703
 20
124.4266512412509
 30
0.0
 11
136.6213039292848
 21
123.4506555214599
 31
0.0
 11
136.5622712714606
 21
123.9380582874393
 31
0.0
 11
136.5622712703
 21
124.4266512412509
 31
0.0
  0
SPLINE
  5
22F
330
1F
100
AcDbEntity
  8
0
  6
Continuous
 62
     7
100
AcDbSpline
210
0.0
220
0.0
230
1.0
 70
     8
 71
     3
 72
    21
 73
    17
 74
    15
 42
0.000000001
 43
0.0000000001
 44
0.00000001
 40
0.0
 40
0.0
 40
0.0
 40
0.0
 40
0.0407434667704692
 40
0.0775134898244419
 40
0.118425459628819
 40
0.1499496715269755
 40
0.1820827176902856
 40
0.2190604840713025
 40
0.2558176735974367
 40
0.3043086720672573
 40
0.3678549384734716
 40
0.4319183458003579
 40
0.4879646013136273
 40
0.5584733036016567
 40
0.6164004119421141
 40
0.6862657137250108
 40
0.6862657137250108
 40
0.6862657137250108
 40
0.6862657137250108
 10
124.9461840408476
 20
128.8662690088455
 30
0.0
 10
124.954194062788
 20
128.8772538901581
 30
0.0
 10
124.9694329339466
 20
128.8981523744608
 30
0.0
 10
124.9881267505825
 20
128.9330576070287
 30
0.0
 10
125.0002225765566
 20
128.9676780807052
 30
0.0
 10
125.0040165559106
 20
129.0026353044438
 30
0.0
 10
124.9987741096716
 20
129.0362495463841
 30
0.0
 10
124.9822300172762
 20
129.0681726260668
 30
0.0
 10
124.9535491154646
 20
129.0976759690119
 30
0.0
 10
124.9112986195807
 20
129.1243879495388
 30
0.0
 10
124.8564105653236
 20
129.1459319470704
 30
0.0
 10
124.7969596005148
 20
129.1609323105646
 30
0.0
 10
124.7342652441131
 20
129.1715167676592
 30
0.0
 10
124.673062910909
 20
129.1778689608755
 30
0.0
 10
124.607053202706
 20
129.1817034893745
 30
0.0
 10
124.5644517774835
 20
129.1821245647652
 30
0.0
 10
124.5411611811052
 20
129.1823547643338
 30
0.0
 11
124.9461840408476
 21
128.8662690088455
 31
0.0
 11
124.9693843798858
 21
128.8997619184189
 31
0.0
 11
124.9866533224899
 21
128.9322244860347
 31
0.0
 11
124.9995413843409
 21
128.9710534341704
 31
0.0
 11
125.0026148102829
 21
129.002427468729
 31
0.0
 11
124.9974700607994
 21
129.0341459851233
 31
0.0
 11
124.9807419878903
 21
129.0671236578685
 31
0.0
 11
124.9555212039343
 21
129.0938632008162
 31
0.0
 11
124.9149915385863
 21
129.1204850593101
 31
0.0
 11
124.8561912981061
 21
129.1445819463475
 31
0.0
 11
124.7941869865508
 21
129.1606936103852
 31
0.0
 11
124.7389511401626
 21
129.1701901440788
 31
0.0
 11
124.6688454295855
 21
129.1777178646356
 31
0.0
 11
124.6110143194647
 21
129.1810514248459
 31
0.0
 11
124.5411611811052
 21
129.1823547643338
 31
0.0
  0
SPLINE
  5
230
330
1F
100
AcDbEntity
  8
0
  6
Continuous
 62
     7
100
AcDbSpline
210
0.0
220
0.0
230
1.0
 70
     8
 71
     3
 72
    11
 73
     7
 74
     5
 42
0.000000001
 43
0.0000000001
 44
0.00000001
 40
0.0
 40
0.0
 40
0.0
 40
0.0
 40
0.0522035259103276
 40
0.0968867962915635
 40
0.1453767024692258
 40
0.1908881240400829
 40
0.1908881240400829
 40
0.1908881240400829
 40
0.1908881240400829
 10
124.966641233019
 20
128.6823547643338
 30
0.0
 10
124.9810078066521
 20
128.6921770312228
 30
0.0
 10
125.0076713478526
 20
128.7104066156774
 30
0.0
 10
125.0464901485763
 20
128.7394267520978
 30
0.0
 10
125.0826586291487
 20
128.7682526498415
 30
0.0
 10
125.1059609122104
 20
128.7892095217849
 30
0.0
 10
125.1172428759339
 20
128.7993559482098
 30
0.0
 11
124.966641233019
 21
128.6823547643338
 31
0.0
 11
125.0095108408186
 21
128.7121441054835
 31
0.0
 11
125.0453402932657
 21
128.7388432631388
 31
0.0
 11
125.0831126560335
 21
128.7692491780292
 31
0.0
 11
125.1172428759339
 21
128.7993559482098
 31
0.0
  0
SPLINE
  5
231
330
1F
100
AcDbEntity
  8
0
  6
Continuous
 62
     7
100
AcDbSpline
210
0.0
220
0.0
230
1.0
 70
     8
 71
     3
 72
     9
 73
     5
 74
     3
 42
0.000000001
 43
0.0000000001
 44
0.00000001
 40
0.0
 40
0.0
 40
0.0
 40
0.0
 40
0.5349928886640504
 40
1.090597662203291
 40
1.090597662203291
 40
1.090597662203291
 40
1.090597662203291
 10
137.3130214644681
 20
126.3145720255206
 30
0.0
 10
137.4047387530299
 20
126.4677921518863
 30
0.0
 10
137.5917069754382
 20
126.7801355666432
 30
0.0
 10
137.8208706921549
 20
127.063006923655
 30
0.0
 10
137.9376181126665
 20
127.2071156771783
 30
0.0
 11
137.3130214644681
 21
126.3145720255206
 31
0.0
 11
137.5983272404051
 21
126.7671402586558
 31
0.0
 11
137.9376181126665
 21
127.2071156771783
 31
0.0
  0
SPLINE
  5
232
330
1F
100
AcDbEntity
  8
0
  6
Continuous
 62
     7
100
AcDbSpline
210
0.0
220
0.0
230
1.0
 70
     8
 71
     3
 72
     9
 73
     5
 74
     3
 42
0.000000001
 43
0.0000000001
 44
0.00000001
 40
0.0
 40
0.0
 40
0.0
 40
0.0
 40
0.5864758306491507
 40
1.197046743818198
 40
1.197046743818198
 40
1.197046743818198
 40
1.197046743818198
 10
137.7819424172936
 20
127.2509527918572
 30
0.0
 10
137.9116433038826
 20
127.3974810217492
 30
0.0
 10
138.176373791163
 20
127.6965575108385
 30
0.0
 10
138.4752490708021
 20
127.9615446124932
 30
0.0
 10
138.6276947140652
 20
128.0967050886289
 30
0.0
 11
137.7819424172936
 21
127.2509527918572
 31
0.0
 11
138.1792410944133
 21
127.6823547639984
 31
0.0
 11
138.6276947140652
 21
128.0967050886289
 31
0.0
  0
SPLINE
  5
233
330
1F
100
AcDbEntity
  8
0
  6
Continuous
 62
     7
100
AcDbSpline
210
0.0
220
0.0
230
1.0
 70
     8
 71
     3
 72
     9
 73
     5
 74
     3
 42
0.000000001
 43
0.0000000001
 44
0.00000001
 40
0.0
 40
0.0
 40
0.0
 40
0.0
 40
0.7211215755997017
 40
1.46327566454061
 40
1.46327566454061
 40
1.46327566454061
 40
1.46327566454061
 10
140.997189584083
 20
129.4680614218548
 30
0.0
 10
141.21510218283
 20
129.5697589328491
 30
0.0
 10
141.6572831122223
 20
129.7761200858106
 30
0.0
 10
142.1143021515519
 20
129.9471450396555
 30
0.0
 10
142.3460961754338
 20
130.0338866278133
 30
0.0
 11
140.997189584083
 21
129.4680614218548
 31
0.0
 11
141.6545310397997
 21
129.7645720249863
 31
0.0
 11
142.3460961754338
 21
130.0338866278133
 31
0.0
  0
SPLINE
  5
234
330
1F
100
AcDbEntity
  8
0
  6
Continuous
 62
     7
100
AcDbSpline
210
0.0
220
0.0
230
1.0
 70
     8
 71
     3
 72
     9
 73
     5
 74
     3
 42
0.000000001
 43
0.0000000001
 44
0.00000001
 40
0.0
 40
0.0
 40
0.0
 40
0.0
 40
0.7725332915077496
 40
1.562735005242294
 40
1.562735005242294
 40
1.562735005242294
 40
1.562735005242294
 10
142.2543114664777
 20
130.1186914374288
 30
0.0
 10
142.4977243772078
 20
130.2029990861729
 30
0.0
 10
142.9901172426311
 20
130.3735425444839
 30
0.0
 10
143.4933567723133
 20
130.5087864731821
 30
0.0
 10
143.7478213756565
 20
130.5771729678322
 30
0.0
 11
142.2543114664777
 21
130.1186914374288
 31
0.0
 11
142.9872008977754
 21
130.3629879137543
 31
0.0
 11
143.7478213756565
 21
130.5771729678322
 31
0.0
  0
SPLINE
  5
235
330
1F
100
AcDbEntity
  8
0
  6
Continuous
 62
     7
100
AcDbSpline
210
0.0
220
0.0
230
1.0
 70
     8
 71
     3
 72
     9
 73
     5
 74
     3
 42
0.000000001
 43
0.0000000001
 44
0.00000001
 40
0.0
 40
0.0
 40
0.0
 40
0.0
 40
0.626279032305143
 40
1.277143361971782
 40
1.277143361971782
 40
1.277143361971782
 40
1.277143361971782
 10
138.7712882337701
 20
128.0407857982818
 30
0.0
 10
138.9326329305648
 20
128.1734939662733
 30
0.0
 10
139.2616561063317
 20
128.4441198968244
 30
0.0
 10
139.6168100252907
 20
128.6794339868619
 30
0.0
 10
139.7978053871573
 20
128.7993559482098
 30
0.0
 11
138.7712882337701
 21
128.0407857982818
 31
0.0
 11
139.261605925423
 21
128.4304189436738
 31
0.0
 11
139.7978053871573
 21
128.7993559482098
 31
0.0
  0
SPLINE
  5
236
330
1F
100
AcDbEntity
  8
0
  6
Continuous
 62
     7
100
AcDbSpline
210
0.0
220
0.0
230
1.0
 70
     8
 71
     3
 72
     9
 73
     5
 74
     3
 42
0.000000001
 43
0.0000000001
 44
0.00000001
 40
0.0
 40
0.0
 40
0.0
 40
0.0
 40
0.6849195822316559
 40
1.393721038269867
 40
1.393721038269867
 40
1.393721038269867
 40
1.393721038269867
 10
139.6690889276462
 20
128.8662690088457
 30
0.0
 10
139.8634193696278
 20
128.9863353098991
 30
0.0
 10
140.2588562052049
 20
129.2306543836339
 30
0.0
 10
140.6744817738637
 20
129.4388064595898
 30
0.0
 10
140.8858555042378
 20
129.5446658661667
 30
0.0
 11
139.6690889276462
 21
128.8662690088457
 31
0.0
 11
140.2569559534484
 21
129.217733366222
 31
0.0
 11
140.8858555042378
 21
129.5446658661667
 31
0.0
  0
SPLINE
  5
237
330
1F
100
AcDbEntity
  8
0
  6
Continuous
 62
     7
100
AcDbSpline
210
0.0
220
0.0
230
1.0
 70
     8
 71
     3
 72
    17
 73
    13
 74
    11
 42
0.000000001
 43
0.0000000001
 44
0.00000001
 40
0.0
 40
0.0
 40
0.0
 40
0.0
 40
0.0621645926636852
 40
0.1293226529058701
 40
0.2723460453493862
 40
0.4321127817517338
 40
0.582141654885064
 40
0.7403726564290711
 40
0.9291740590175265
 40
1.120074491418349
 40
1.314881528073844
 40
1.501428883303144
 40
1.501428883303144
 40
1.501428883303144
 40
1.501428883303144
 10
123.2640078865525
 20
127.1823547643337
 30
0.0
 10
123.2502402599332
 20
127.1668498435105
 30
0.0
 10
123.2215990871279
 20
127.1345945580034
 30
0.0
 10
123.1540972159137
 20
127.0736666441044
 30
0.0
 10
123.0544229012788
 20
127.0005485491361
 30
0.0
 10
122.9231656378338
 20
126.9254699113965
 30
0.0
 10
122.7813841440511
 20
126.8600271576696
 30
0.0
 10
122.6260528569754
 20
126.801974753677
 30
0.0
 10
122.4536847217922
 20
126.7518176273243
 30
0.0
 10
122.2660509441397
 20
126.7128765231253
 30
0.0
 10
122.0766664063514
 20
126.6874254294702
 30
0.0
 10
121.9495190508932
 20
126.6840203989207
 30
0.0
 10
121.8873223028284
 20
126.6823547643335
 30
0.0
 11
123.2640078865525
 21
127.1823547643337
 31
0.0
 11
123.2219166278617
 21
127.1366080379556
 31
0.0
 11
123.1724377223391
 21
127.0911983069659
 31
0.0
 11
123.0575531972526
 21
127.0060088962731
 31
0.0
 11
122.9192662366651
 21
126.9259956074917
 31
0.0
 11
122.7831704529507
 21
126.8628560765006
 31
0.0
 11
122.6350341305032
 21
126.8072442087041
 31
0.0
 11
122.4537779058562
 21
126.7544034022979
 31
0.0
 11
122.2669162155148
 21
126.7153433943032
 31
0.0
 11
122.07368754868
 21
126.6905953993561
 31
0.0
 11
121.8873223028284
 21
126.6823547643335
 31
0.0
  0
SPLINE
  5
238
330
1F
100
AcDbEntity
  8
0
  6
Continuous
 62
     7
100
AcDbSpline
210
0.0
220
0.0
230
1.0
 70
     8
 71
     3
 72
     9
 73
     5
 74
     3
 42
0.000000001
 43
0.0000000001
 44
0.00000001
 40
0.0
 40
0.0
 40
0.0
 40
0.0
 40
0.7942001958953288
 40
1.601389564761299
 40
1.601389564761299
 40
1.601389564761299
 40
1.601389564761299
 10
143.8182702287672
 20
130.4858184220679
 30
0.0
 10
144.0754916400959
 20
130.5487659015571
 30
0.0
 10
144.5941413325847
 20
130.6756903493249
 30
0.0
 10
145.1199970383992
 20
130.7683532318604
 30
0.0
 10
145.3850575507087
 20
130.8150604663084
 30
0.0
 11
143.8182702287672
 21
130.4858184220679
 31
0.0
 11
144.5917068621801
 21
130.6662338471357
 31
0.0
 11
145.3850575507087
 21
130.8150604663084
 31
0.0
  0
SPLINE
  5
239
330
1F
100
AcDbEntity
  8
0
  6
Continuous
 62
     7
100
AcDbSpline
210
0.0
220
0.0
230
1.0
 70
     8
 71
     3
 72
     9
 73
     5
 74
     3
 42
0.000000001
 43
0.0000000001
 44
0.00000001
 40
0.0
 40
0.0
 40
0.0
 40
0.0
 40
0.5244020404165843
 40
1.067148448402027
 40
1.067148448402027
 40
1.067148448402027
 40
1.067148448402027
 10
75.1672917427424
 20
122.4889014951357
 30
0.0
 10
75.09333717077747
 20
122.3302122072416
 30
0.0
 10
74.94284096767288
 20
122.0072824521719
 30
0.0
 10
74.74513855335378
 20
121.7108650339592
 30
0.0
 10
74.6445880772742
 20
121.560108610422
 30
0.0
 11
75.1672917427424
 21
122.4889014951357
 31
0.0
 11
74.93402871734773
 21
122.019235803916
 31
0.0
 11
74.6445880772742
 21
121.560108610422
 31
0.0
  0
SPLINE
  5
23A
330
1F
100
AcDbEntity
  8
0
  6
Continuous
 62
     7
100
AcDbSpline
210
0.0
220
0.0
230
1.0
 70
     8
 71
     3
 72
     9
 73
     5
 74
     3
 42
0.000000001
 43
0.0000000001
 44
0.00000001
 40
0.0
 40
0.0
 40
0.0
 40
0.0
 40
0.4908528568190653
 40
0.9748037492118047
 40
0.9748037492118047
 40
0.9748037492118047
 40
0.9748037492118047
 10
75.17266700974722
 20
125.3805271902354
 30
0.0
 10
75.21615540862823
 20
125.2224217743002
 30
0.0
 10
75.3025206892062
 20
124.9084340850929
 30
0.0
 10
75.33221132509452
 20
124.5841535490961
 30
0.0
 10
75.34695152300947
 20
124.4231612915807
 30
0.0
 11
75.17266700974722
 21
125.3805271902354
 31
0.0
 11
75.28876218658614
 21
124.9036011608113
 31
0.0
 11
75.34695152300947
 21
124.4231612915807
 31
0.0
  0
SPLINE
  5
23B
330
1F
100
AcDbEntity
  8
0
  6
Continuous
 62
     7
100
AcDbSpline
210
0.0
220
0.0
230
1.0
 70
     8
 71
     3
 72
     9
 73
     5
 74
     3
 42
0.000000001
 43
0.0000000001
 44
0.00000001
 40
0.0
 40
0.0
 40
0.0
 40
0.0
 40
0.4885929532092633
 40
0.9795576264626283
 40
0.9795576264626283
 40
0.9795576264626283
 40
0.9795576264626283
 10
75.52005109191111
 20
124.4266512412509
 30
0.0
 10
75.52493486195499
 20
124.2634922469516
 30
0.0
 10
75.53472608883276
 20
123.9363822551879
 30
0.0
 10
75.48562728445737
 20
123.6128255655856
 30
0.0
 10
75.4610184329265
 20
123.4506555214599
 30
0.0
 11
75.52005109191111
 21
124.4266512412509
 31
0.0
 11
75.52005109075046
 21
123.9380582874393
 31
0.0
 11
75.4610184329265
 21
123.4506555214599
 31
0.0
  0
SPLINE
  5
23C
330
1F
100
AcDbEntity
  8
0
  6
Continuous
 62
     7
100
AcDbSpline
210
0.0
220
0.0
230
1.0
 70
     8
 71
     3
 72
     9
 73
     5
 74
     3
 42
0.000000001
 43
0.0000000001
 44
0.00000001
 40
0.0
 40
0.0
 40
0.0
 40
0.0
 40
0.4908528571975168
 40
0.9928532183193348
 40
0.9928532183193348
 40
0.9928532183193348
 40
0.9928532183193348
 10
75.28876218772461
 20
123.4611083677866
 30
0.0
 10
75.2544711564613
 20
123.3007900703994
 30
0.0
 10
75.18511030891852
 20
122.9765125754173
 30
0.0
 10
75.06165321971027
 20
122.6687185903776
 30
0.0
 10
74.99923159311459
 20
122.5130936846958
 30
0.0
 11
75.28876218772461
 21
123.4611083677866
 31
0.0
 11
75.17266700861988
 21
122.9841823385464
 31
0.0
 11
74.99923159311459
 21
122.5130936846958
 31
0.0
  0
SPLINE
  5
23D
330
1F
100
AcDbEntity
  8
0
  6
Continuous
 62
     7
100
AcDbSpline
210
0.0
220
0.0
230
1.0
 70
     8
 71
     3
 72
     9
 73
     5
 74
     3
 42
0.000000001
 43
0.0000000001
 44
0.00000001
 40
0.0
 40
0.0
 40
0.0
 40
0.0
 40
0.5092757292343025
 40
1.033677768955887
 40
1.033677768955887
 40
1.033677768955887
 40
1.033677768955887
 10
136.7390816460734
 20
125.397892008002
 30
0.0
 10
136.7935775239868
 20
125.558987249925
 30
0.0
 10
136.904187913813
 20
125.8859625148778
 30
0.0
 10
137.0661351102389
 20
126.1908162997689
 30
0.0
 10
137.148293643759
 20
126.3454737249582
 30
0.0
 11
136.7390816460734
 21
125.397892008002
 31
0.0
 11
136.9150306205955
 21
125.875808033369
 31
0.0
 11
137.148293643759
 21
126.3454737249582
 31
0.0
  0
SPLINE
  5
23E
330
1F
100
AcDbEntity
  8
0
  6
Continuous
 62
     7
100
AcDbSpline
210
0.0
220
0.0
230
1.0
 70
     8
 71
     3
 72
     9
 73
     5
 74
     3
 42
0.000000001
 43
0.0000000001
 44
0.00000001
 40
0.0
 40
0.0
 40
0.0
 40
0.0
 40
0.7421540889408508
 40
1.463275664540648
 40
1.463275664540648
 40
1.463275664540648
 40
1.463275664540648
 10
69.73622618677734
 20
130.0338866278133
 30
0.0
 10
69.96802021065919
 20
129.9471450396555
 30
0.0
 10
70.42503924998888
 20
129.7761200858108
 30
0.0
 10
70.86722017938116
 20
129.5697589328491
 30
0.0
 10
71.08513277812813
 20
129.4680614218547
 30
0.0
 11
69.73622618677734
 21
130.0338866278133
 31
0.0
 11
70.4277913224114
 21
129.7645720249864
 31
0.0
 11
71.08513277812813
 21
129.4680614218547
 31
0.0
  0
SPLINE
  5
23F
330
1F
100
AcDbEntity
  8
0
  6
Continuous
 62
     7
100
AcDbSpline
210
0.0
220
0.0
230
1.0
 70
     8
 71
     3
 72
     9
 73
     5
 74
     3
 42
0.000000001
 43
0.0000000001
 44
0.00000001
 40
0.0
 40
0.0
 40
0.0
 40
0.0
 40
0.0932326008907047
 40
0.183690049307322
 40
0.183690049307322
 40
0.183690049307322
 40
0.183690049307322
 10
87.13613832136389
 20
128.8662690088451
 30
0.0
 10
87.10702435978835
 20
128.8553915206924
 30
0.0
 10
87.04966304716524
 20
128.8339603039717
 30
0.0
 10
86.99298859538138
 20
128.8107739747512
 30
0.0
 10
86.96507948626083
 20
128.7993559481962
 30
0.0
 11
87.13613832136389
 21
128.8662690088451
 31
0.0
 11
87.0489733831796
 21
128.833184398536
 31
0.0
 11
86.96507948626083
 21
128.7993559481962
 31
0.0
  0
SPLINE
  5
240
330
1F
100
AcDbEntity
  8
0
  6
Continuous
 62
     7
100
AcDbSpline
210
0.0
220
0.0
230
1.0
 70
     8
 71
     3
 72
    11
 73
     7
 74
     5
 42
0.000000001
 43
0.0000000001
 44
0.00000001
 40
0.0
 40
0.0
 40
0.0
 40
0.0
 40
0.0521025911610228
 40
0.0967130359267643
 40
0.1452953699885151
 40
0.1908881111176887
 40
0.1908881111176887
 40
0.1908881111176887
 40
0.1908881111176887
 10
87.11568112919167
 20
128.6823547643338
 30
0.0
 10
87.10134217651867
 20
128.6921577994182
 30
0.0
 10
87.0747261640339
 20
128.7103542436863
 30
0.0
 10
87.03592617376441
 20
128.7393541484942
 30
0.0
 10
86.99972782611323
 20
128.7681967074996
 30
0.0
 10
86.97638189028905
 20
128.789191693253
 30
0.0
 10
86.96507948626083
 20
128.7993559481962
 30
0.0
 11
87.11568112919167
 21
128.6823547643338
 31
0.0
 11
87.07289342987127
 21
128.7120850989132
 31
0.0
 11
87.03711965392608
 21
128.7387370925893
 31
0.0
 11
86.9992719453271
 21
128.7691968067225
 31
0.0
 11
86.96507948626083
 21
128.7993559481962
 31
0.0
  0
SPLINE
  5
241
330
1F
100
AcDbEntity
  8
0
  6
Continuous
 62
     7
100
AcDbSpline
210
0.0
220
0.0
230
1.0
 70
     8
 71
     3
 72
     9
 73
     5
 74
     3
 42
0.000000001
 43
0.0000000001
 44
0.00000001
 40
0.0
 40
0.0
 40
0.0
 40
0.0
 40
0.0904574483983506
 40
0.1836900492868455
 40
0.1836900492868455
 40
0.1836900492868455
 40
0.1836900492868455
 10
125.1172428759339
 20
128.7993559482098
 30
0.0
 10
125.0893337668181
 20
128.8107739747603
 30
0.0
 10
125.0326593150387
 20
128.8339603039737
 30
0.0
 10
124.9752980024223
 20
128.8553915206927
 30
0.0
 10
124.9461840408476
 20
128.8662690088455
 30
0.0
 11
125.1172428759339
 21
128.7993559482098
 31
0.0
 11
125.0333489790299
 21
128.8331843985374
 31
0.0
 11
124.9461840408476
 21
128.8662690088455
 31
0.0
  0
SPLINE
  5
242
330
1F
100
AcDbEntity
  8
0
  6
Continuous
 62
     7
100
AcDbSpline
210
0.0
220
0.0
230
1.0
 70
     8
 71
     3
 72
     9
 73
     5
 74
     3
 42
0.000000001
 43
0.0000000001
 44
0.00000001
 40
0.0
 40
0.0
 40
0.0
 40
0.0
 40
0.0161819178361993
 40
0.0323454911666145
 40
0.0323454911666145
 40
0.0323454911666145
 40
0.0323454911666145
 10
88.79750278760781
 20
127.2071156771783
 30
0.0
 10
88.8009811132342
 20
127.20299302654
 30
0.0
 10
88.80793380600787
 20
127.1947523859963
 30
0.0
 10
88.81485556608625
 20
127.1864857463838
 30
0.0
 10
88.8183144756581
 20
127.1823547643335
 30
0.0
 11
88.79750278760781
 21
127.2071156771783
 31
0.0
 11
88.80793001488331
 21
127.1947412116704
 31
0.0
 11
88.8183144756581
 21
127.1823547643335
 31
0.0
  0
SPLINE
  5
243
330
1F
100
AcDbEntity
  8
0
  6
Continuous
 62
     7
100
AcDbSpline
210
0.0
220
0.0
230
1.0
 70
     8
 71
     3
 72
     9
 73
     5
 74
     3
 42
0.000000001
 43
0.0000000001
 44
0.00000001
 40
0.0
 40
0.0
 40
0.0
 40
0.0
 40
0.0161635733303793
 40
0.0323454911665351
 40
0.0323454911665351
 40
0.0323454911665351
 40
0.0323454911665351
 10
123.2640078865525
 20
127.1823547643337
 30
0.0
 10
123.2674667961244
 20
127.1864857463839
 30
0.0
 10
123.2743885562029
 20
127.1947523859964
 30
0.0
 10
123.2813412489765
 20
127.20299302654
 30
0.0
 10
123.2848195746029
 20
127.2071156771783
 30
0.0
 11
123.2640078865525
 21
127.1823547643337
 31
0.0
 11
123.2743923473274
 21
127.1947412116704
 31
0.0
 11
123.2848195746029
 21
127.2071156771783
 31
0.0
  0
SPLINE
  5
244
330
1F
100
AcDbEntity
  8
0
  6
Continuous
 62
     7
100
AcDbSpline
210
0.0
220
0.0
230
1.0
 70
     8
 71
     3
 72
     9
 73
     5
 74
     3
 42
0.000000001
 43
0.0000000001
 44
0.00000001
 40
0.0
 40
0.0
 40
0.0
 40
0.0
 40
0.6105709131690885
 40
1.197046743818355
 40
1.197046743818355
 40
1.197046743818355
 40
1.197046743818355
 10
88.10742618620918
 20
128.0967050886289
 30
0.0
 10
88.25987182947229
 20
127.9615446124932
 30
0.0
 10
88.5587471091115
 20
127.6965575108385
 30
0.0
 10
88.823477596392
 20
127.3974810217492
 30
0.0
 10
88.953178482981
 20
127.2509527918572
 30
0.0
 11
88.10742618620918
 21
128.0967050886289
 31
0.0
 11
88.55587980586114
 21
127.6823547639984
 31
0.0
 11
88.953178482981
 21
127.2509527918572
 31
0.0
  0
SPLINE
  5
245
330
1F
100
AcDbEntity
  8
0
  6
Continuous
 62
     7
100
AcDbSpline
210
0.0
220
0.0
230
1.0
 70
     8
 71
     3
 72
     9
 73
     5
 74
     3
 42
0.000000001
 43
0.0000000001
 44
0.00000001
 40
0.0
 40
0.0
 40
0.0
 40
0.0
 40
0.5864758306491603
 40
1.197046743818197
 40
1.197046743818197
 40
1.197046743818197
 40
1.197046743818197
 10
123.1291438792297
 20
127.2509527918572
 30
0.0
 10
123.2588447658186
 20
127.3974810217492
 30
0.0
 10
123.523575253099
 20
127.6965575108385
 30
0.0
 10
123.8224505327383
 20
127.9615446124933
 30
0.0
 10
123.9748961760013
 20
128.0967050886289
 30
0.0
 11
123.1291438792297
 21
127.2509527918572
 31
0.0
 11
123.5264425563494
 21
127.6823547639984
 31
0.0
 11
123.9748961760013
 21
128.0967050886289
 31
0.0
  0
SPLINE
  5
246
330
1F
100
AcDbEntity
  8
0
  6
Continuous
 62
     7
100
AcDbSpline
210
0.0
220
0.0
230
1.0
 70
     8
 71
     3
 72
     9
 73
     5
 74
     3
 42
0.000000001
 43
0.0000000001
 44
0.00000001
 40
0.0
 40
0.0
 40
0.0
 40
0.0
 40
0.4814646697879165
 40
0.977438773632228
 40
0.977438773632228
 40
0.977438773632228
 40
0.977438773632228
 10
124.1845126319968
 20
128.0967050886289
 30
0.0
 10
124.3090731645676
 20
128.1980141196836
 30
0.0
 10
124.5619480019463
 20
128.4036852180275
 30
0.0
 10
124.8304150797629
 20
128.5885501881691
 30
0.0
 10
124.966641233019
 20
128.6823547643338
 30
0.0
 11
124.1845126319968
 21
128.0967050886289
 31
0.0
 11
124.5619774265386
 21
128.3955839225929
 31
0.0
 11
124.966641233019
 21
128.6823547643338
 31
0.0
  0
SPLINE
  5
247
330
1F
100
AcDbEntity
  8
0
  6
Continuous
 62
     7
100
AcDbSpline
210
0.0
220
0.0
230
1.0
 70
     8
 71
     3
 72
     9
 73
     5
 74
     3
 42
0.000000001
 43
0.0000000001
 44
0.00000001
 40
0.0
 40
0.0
 40
0.0
 40
0.0
 40
0.5244020397215784
 40
1.033677768955985
 40
1.033677768955985
 40
1.033677768955985
 40
1.033677768955985
 10
74.93402871845217
 20
126.3454737249583
 30
0.0
 10
75.01618725197221
 20
126.190816299769
 30
0.0
 10
75.17813444839796
 20
125.8859625148778
 30
0.0
 10
75.2887448382243
 20
125.558987249925
 30
0.0
 10
75.34324071613781
 20
125.397892008002
 30
0.0
 11
74.93402871845217
 21
126.3454737249583
 31
0.0
 11
75.16729174161551
 21
125.875808033369
 31
0.0
 11
75.34324071613781
 21
125.397892008002
 31
0.0
  0
SPLINE
  5
248
330
1F
100
AcDbEntity
  8
0
  6
Continuous
 62
     7
100
AcDbSpline
210
0.0
220
0.0
230
1.0
 70
     8
 71
     3
 72
     9
 73
     5
 74
     3
 42
0.000000001
 43
0.0000000001
 44
0.00000001
 40
0.0
 40
0.0
 40
0.0
 40
0.0
 40
0.5556047735393271
 40
1.090597662203393
 40
1.090597662203393
 40
1.090597662203393
 40
1.090597662203393
 10
74.14470424954436
 20
127.2071156771783
 30
0.0
 10
74.26145167005606
 20
127.0630069236549
 30
0.0
 10
74.49061538677283
 20
126.7801355666433
 30
0.0
 10
74.67758360918116
 20
126.4677921518863
 30
0.0
 10
74.76930089774294
 20
126.3145720255206
 30
0.0
 11
74.14470424954436
 21
127.2071156771783
 31
0.0
 11
74.48399512180593
 21
126.7671402586558
 31
0.0
 11
74.76930089774294
 21
126.3145720255206
 31
0.0
  0
SPLINE
  5
249
330
1F
100
AcDbEntity
  8
0
  6
Continuous
 62
     7
100
AcDbSpline
210
0.0
220
0.0
230
1.0
 70
     8
 71
     3
 72
     9
 73
     5
 74
     3
 42
0.000000001
 43
0.0000000001
 44
0.00000001
 40
0.0
 40
0.0
 40
0.0
 40
0.0
 40
0.6508643296665922
 40
1.27714336197178
 40
1.27714336197178
 40
1.27714336197178
 40
1.27714336197178
 10
72.28451697505386
 20
128.7993559482098
 30
0.0
 10
72.46551233692047
 20
128.6794339868619
 30
0.0
 10
72.82066625587939
 20
128.4441198968244
 30
0.0
 10
73.14968943164628
 20
128.1734939662733
 30
0.0
 10
73.31103412844107
 20
128.0407857982818
 30
0.0
 11
72.28451697505386
 21
128.7993559482098
 31
0.0
 11
72.82071643678809
 21
128.4304189436738
 31
0.0
 11
73.31103412844107
 21
128.0407857982818
 31
0.0
  0
SPLINE
  5
24A
330
1F
100
AcDbEntity
  8
0
  6
Continuous
 62
     7
100
AcDbSpline
210
0.0
220
0.0
230
1.0
 70
     8
 71
     3
 72
     9
 73
     5
 74
     3
 42
0.000000001
 43
0.0000000001
 44
0.00000001
 40
0.0
 40
0.0
 40
0.0
 40
0.0
 40
0.7088014560381606
 40
1.393721038269768
 40
1.393721038269768
 40
1.393721038269768
 40
1.393721038269768
 10
71.1964668579734
 20
129.5446658661667
 30
0.0
 10
71.4078405883475
 20
129.4388064595898
 30
0.0
 10
71.82346615700627
 20
129.230654383634
 30
0.0
 10
72.2189029925834
 20
128.986335309899
 30
0.0
 10
72.41323343456492
 20
128.8662690088457
 30
0.0
 11
71.1964668579734
 21
129.5446658661667
 31
0.0
 11
71.82536640876273
 21
129.217733366222
 31
0.0
 11
72.41323343456492
 21
128.8662690088457
 31
0.0
  0
SPLINE
  5
24B
330
1F
100
AcDbEntity
  8
0
  6
Continuous
 62
     7
100
AcDbSpline
210
0.0
220
0.0
230
1.0
 70
     8
 71
     3
 72
     9
 73
     5
 74
     3
 42
0.000000001
 43
0.0000000001
 44
0.00000001
 40
0.0
 40
0.0
 40
0.0
 40
0.0
 40
0.7902017137346536
 40
1.56273500524243
 40
1.56273500524243
 40
1.56273500524243
 40
1.56273500524243
 10
68.33450098655464
 20
130.5771729678322
 30
0.0
 10
68.58896558989784
 20
130.5087864731821
 30
0.0
 10
69.09220511958014
 20
130.3735425444839
 30
0.0
 10
69.58459798500351
 20
130.2029990861729
 30
0.0
 10
69.8280108957336
 20
130.1186914374288
 30
0.0
 11
68.33450098655464
 21
130.5771729678322
 31
0.0
 11
69.09512146443589
 21
130.3629879137543
 31
0.0
 11
69.8280108957336
 21
130.1186914374288
 31
0.0
  0
SPLINE
  5
24C
330
1F
100
AcDbEntity
  8
0
  6
Continuous
 62
     7
100
AcDbSpline
210
0.0
220
0.0
230
1.0
 70
     8
 71
     3
 72
    19
 73
    15
 74
    13
 42
0.000000001
 43
0.0000000001
 44
0.00000001
 40
0.0
 40
0.0
 40
0.0
 40
0.0
 40
0.0433897898496001
 40
0.0774012161669332
 40
0.1131902923797585
 40
0.1496872882281802
 40
0.1866893800577829
 40
0.2189918030915003
 40
0.2585829930471109
 40
0.3042662420694971
 40
0.3632260655159127
 40
0.4319375137439712
 40
0.5497172926674345
 40
0.6861782376723558
 40
0.6861782376723558
 40
0.6861782376723558
 40
0.6861782376723558
 10
87.13613832136389
 20
128.8662690088451
 30
0.0
 10
87.1276215648372
 20
128.8779799068932
 30
0.0
 10
87.11242888943535
 20
128.8988704890288
 30
0.0
 10
87.09473331054016
 20
128.9323261500965
 30
0.0
 10
87.0826300086635
 20
128.9658008428576
 30
0.0
 10
87.07781272188454
 20
129.0023293648841
 30
0.0
 10
87.08404985232538
 20
129.0377455790913
 30
0.0
 10
87.10161404266724
 20
129.0700696718716
 30
0.0
 10
87.12954283639053
 20
129.0982348427865
 30
0.0
 10
87.17055330836948
 20
129.1238924791328
 30
0.0
 10
87.22440516115438
 20
129.1455151629023
 30
0.0
 10
87.30384266514159
 20
129.1657066432604
 30
0.0
 10
87.41088975920765
 20
129.1798821859088
 30
0.0
 10
87.49566109033566
 20
129.1814911673974
 30
0.0
 10
87.5411611811054
 20
129.1823547643446
 30
0.0
 11
87.13613832136389
 21
128.8662690088451
 31
0.0
 11
87.11155977558315
 21
128.9020261009414
 31
0.0
 11
87.09571508644103
 21
128.9321213333496
 31
0.0
 11
87.08394712478558
 21
128.965920343907
 31
0.0
 11
87.07970220062464
 21
129.0021696390549
 31
0.0
 11
87.08634873766488
 21
129.0385698924159
 31
0.0
 11
87.10154497497888
 21
129.0670746463063
 31
0.0
 11
87.12895592051743
 21
129.0956421544881
 31
0.0
 11
87.16730313094763
 21
129.1204705829585
 31
0.0
 11
87.22172963931119
 21
129.143142508331
 31
0.0
 11
87.28816035671616
 21
129.1606987932767
 31
0.0
 11
87.404804850105
 21
129.1770125575521
 31
0.0
 11
87.5411611811054
 21
129.1823547643446
 31
0.0
  0
SPLINE
  5
24D
330
1F
100
AcDbEntity
  8
0
  6
Continuous
 62
     7
100
AcDbSpline
210
0.0
220
0.0
230
1.0
 70
     8
 71
     3
 72
     9
 73
     5
 74
     3
 42
0.000000001
 43
0.0000000001
 44
0.00000001
 40
0.0
 40
0.0
 40
0.0
 40
0.0
 40
0.807189368866054
 40
1.601389564761355
 40
1.601389564761355
 40
1.601389564761355
 40
1.601389564761355
 10
66.69726481150235
 20
130.8150604663084
 30
0.0
 10
66.96232532381181
 20
130.7683532318605
 30
0.0
 10
67.48818102962643
 20
130.6756903493248
 30
0.0
 10
68.00683072211514
 20
130.5487659015572
 30
0.0
 10
68.2640521334439
 20
130.4858184220679
 30
0.0
 11
66.69726481150235
 21
130.8150604663084
 31
0.0
 11
67.49061550003104
 21
130.6662338471357
 31
0.0
 11
68.2640521334439
 21
130.4858184220679
 31
0.0
  0
SPLINE
  5
24E
330
1F
100
AcDbEntity
  8
0
  6
Continuous
 62
     7
100
AcDbSpline
210
0.0
220
0.0
230
1.0
 70
     8
 71
     3
 72
     9
 73
     5
 74
     3
 42
0.000000001
 43
0.0000000001
 44
0.00000001
 40
0.0
 40
0.0
 40
0.0
 40
0.0
 40
0.8377186042995657
 40
1.6673125489461
 40
1.6673125489461
 40
1.6673125489461
 40
1.6673125489461
 10
65.09046544217165
 20
131.1142312455251
 30
0.0
 10
65.36862414138338
 20
131.0888404747167
 30
0.0
 10
65.92224380023198
 20
131.0383051670101
 30
0.0
 10
66.47164472888879
 20
130.9534216096069
 30
0.0
 10
66.74500660197646
 20
130.9111866359023
 30
0.0
 11
65.09046544217165
 21
131.1142312455251
 31
0.0
 11
65.92387655244943
 21
131.0293879688149
 31
0.0
 11
66.74500660197646
 21
130.9111866359023
 31
0.0
  0
SPLINE
  5
24F
330
1F
100
AcDbEntity
  8
0
  6
Continuous
 62
     7
100
AcDbSpline
210
0.0
220
0.0
230
1.0
 70
     8
 71
     3
 72
     9
 73
     5
 74
     3
 42
0.000000001
 43
0.0000000001
 44
0.00000001
 40
0.0
 40
0.0
 40
0.0
 40
0.0
 40
0.4959741038443462
 40
0.9774387736321625
 40
0.9774387736321625
 40
0.9774387736321625
 40
0.9774387736321625
 10
87.11568112919167
 20
128.6823547643338
 30
0.0
 10
87.25190728244772
 20
128.5885501881691
 30
0.0
 10
87.52037436026446
 20
128.4036852180275
 30
0.0
 10
87.77324919764312
 20
128.1980141196835
 30
0.0
 10
87.8978097302138
 20
128.0967050886289
 30
0.0
 11
87.11568112919167
 21
128.6823547643338
 31
0.0
 11
87.52034493567213
 21
128.3955839225929
 31
0.0
 11
87.8978097302138
 21
128.0967050886289
 31
0.0
  0
SPLINE
  5
250
330
1F
100
AcDbEntity
  8
0
  6
Continuous
 62
     7
100
AcDbSpline
210
0.0
220
0.0
230
1.0
 70
     8
 71
     3
 72
    21
 73
    17
 74
    15
 42
0.000000001
 43
0.0000000001
 44
0.00000001
 40
0.0
 40
0.0
 40
0.0
 40
0.0
 40
0.0678554184563831
 40
0.129694210016734
 40
0.2727683809308601
 40
0.4325807032768311
 40
0.5082972277263085
 40
0.5864980600434162
 40
0.662817860797995
 40
0.7407480983202901
 40
0.8281400224549312
 40
0.9302946514284398
 40
1.032415524366118
 40
1.120876628627421
 40
1.315335476529797
 40
1.501554279553256
 40
1.501554279553256
 40
1.501554279553256
 40
1.501554279553256
 10
88.8183144756581
 20
127.1823547643335
 30
0.0
 10
88.83338274199411
 20
127.1654629256276
 30
0.0
 10
88.86218320971699
 20
127.1331770321535
 30
0.0
 10
88.92996357452297
 20
127.0723760450305
 30
0.0
 10
89.02825155917765
 20
127.0003180571344
 30
0.0
 10
89.13802889657421
 20
126.9375738332501
 30
0.0
 10
89.23206574316384
 20
126.8917835684531
 30
0.0
 10
89.30238590575493
 20
126.8609867372024
 30
0.0
 10
89.37448565581946
 20
126.8325656671159
 30
0.0
 10
89.45042778476318
 20
126.8056723802816
 30
0.0
 10
89.53550517313178
 20
126.778935418751
 30
0.0
 10
89.62936320137726
 20
126.7534776904504
 30
0.0
 10
89.72454373066859
 20
126.7318184111089
 30
0.0
 10
89.85071695105773
 20
126.7082993197986
 30
0.0
 10
90.00599487794537
 20
126.6873889735964
 30
0.0
 10
90.13291408484106
 20
126.6840084384009
 30
0.0
 10
90.19500005938232
 20
126.6823547643337
 30
0.0
 11
88.8183144756581
 21
127.1823547643335
 31
0.0
 11
88.86445745558359
 21
127.132603546163
 31
0.0
 11
88.91016915298911
 21
127.0909564859418
 31
0.0
 11
89.0251242406917
 21
127.0057769987398
 31
0.0
 11
89.16347381975277
 21
126.9257809231296
 31
0.0
 11
89.23153291429028
 21
126.8926003308548
 31
0.0
 11
89.30314830107477
 21
126.8611900373224
 31
0.0
 11
89.37414110372762
 21
126.8331769340002
 31
0.0
 11
89.4475937559368
 21
126.8071417690813
 31
0.0
 11
89.53095960934547
 21
126.7809218736786
 31
0.0
 11
89.6295448218716
 21
126.7541539048303
 31
0.0
 11
89.72912447803745
 21
126.7315140091788
 31
0.0
 11
89.81607398016376
 21
126.7152305463758
 31
0.0
 11
90.00896243451622
 21
126.6905670699908
 31
0.0
 11
90.19500005938232
 21
126.6823547643337
 31
0.0
  0
SPLINE
  5
251
330
1F
100
AcDbEntity
  8
0
  6
Continuous
 62
     7
100
AcDbSpline
210
0.0
220
0.0
230
1.0
 70
     8
 71
     3
 72
     9
 73
     5
 74
     3
 42
0.000000001
 43
0.0000000001
 44
0.00000001
 40
0.0
 40
0.0
 40
0.0
 40
0.0
 40
0.5427464079854234
 40
1.067148448402014
 40
1.067148448402014
 40
1.067148448402014
 40
1.067148448402014
 10
137.4377342849368
 20
121.560108610422
 30
0.0
 10
137.3371838088572
 20
121.7108650339592
 30
0.0
 10
137.1394813945382
 20
122.0072824521719
 30
0.0
 10
136.9889851914335
 20
122.3302122072415
 30
0.0
 10
136.9150306194686
 20
122.4889014951357
 30
0.0
 11
137.4377342849368
 21
121.560108610422
 31
0.0
 11
137.1482936448633
 21
122.019235803916
 31
0.0
 11
136.9150306194686
 21
122.4889014951357
 31
0.0
  0
SPLINE
  5
252
330
1F
100
AcDbEntity
  8
0
  6
Continuous
 62
     7
100
AcDbSpline
210
0.0
220
0.0
230
1.0
 70
     8
 71
     3
 72
     9
 73
     5
 74
     3
 42
0.000000001
 43
0.0000000001
 44
0.00000001
 40
0.0
 40
0.0
 40
0.0
 40
0.0
 40
0.8295939446465068
 40
1.667312548945903
 40
1.667312548945903
 40
1.667312548945903
 40
1.667312548945903
 10
145.3373157602348
 20
130.9111866359023
 30
0.0
 10
145.6106776333224
 20
130.9534216096069
 30
0.0
 10
146.1600785619792
 20
131.0383051670101
 30
0.0
 10
146.7136982208277
 20
131.0888404747167
 30
0.0
 10
146.9918569200394
 20
131.1142312455251
 30
0.0
 11
145.3373157602348
 21
130.9111866359023
 31
0.0
 11
146.1584458097618
 21
131.0293879688149
 31
0.0
 11
146.9918569200394
 21
131.1142312455251
 31
0.0
  0
SPLINE
  5
253
330
1F
100
AcDbEntity
  8
0
  6
Continuous
 62
     7
100
AcDbSpline
210
0.0
220
0.0
230
1.0
 70
     8
 71
     3
 72
     9
 73
     5
 74
     3
 42
0.000000001
 43
0.0000000001
 44
0.00000001
 40
0.0
 40
0.0
 40
0.0
 40
0.0
 40
0.5780976035451224
 40
1.133702377970395
 40
1.133702377970395
 40
1.133702377970395
 40
1.133702377970395
 10
138.3292410934074
 20
120.7323547643336
 30
0.0
 10
138.1954199185876
 20
120.8713349736452
 30
0.0
 10
137.932984346261
 20
121.1438879135789
 30
0.0
 10
137.7083943029269
 20
121.4483557095376
 30
0.0
 10
137.5983272393438
 20
121.5975692697636
 30
0.0
 11
138.3292410934074
 21
120.7323547643336
 31
0.0
 11
137.9376181136955
 21
121.1575938517786
 31
0.0
 11
137.5983272393438
 21
121.5975692697636
 31
0.0
  0
SPLINE
  5
254
330
1F
100
AcDbEntity
  8
0
  6
Continuous
 62
     7
100
AcDbSpline
210
0.0
220
0.0
230
1.0
 70
     8
 71
     3
 72
    13
 73
     9
 74
     7
 42
0.000000001
 43
0.0000000001
 44
0.00000001
 40
0.0
 40
0.0
 40
0.0
 40
0.0
 40
0.682488980003646
 40
1.371552288772247
 40
2.071856826354301
 40
2.784921001841783
 40
3.508853816059567
 40
4.238987884024353
 40
4.238987884024353
 40
4.238987884024353
 40
4.238987884024353
 10
146.5411611811055
 20
110.961747627331
 30
0.0
 10
146.5224443250974
 20
111.1899827749065
 30
0.0
 10
146.4848303018326
 20
111.6486516278975
 30
0.0
 10
146.1885099265457
 20
112.2871062382766
 30
0.0
 10
145.7396419124049
 20
112.8342522494246
 30
0.0
 10
145.1520915983982
 20
113.2494269172502
 30
0.0
 10
144.4710962085067
 20
113.5213264749043
 30
0.0
 10
143.9851636535775
 20
113.5555867048453
 30
0.0
 10
143.7411611811056
 20
113.5727898685164
 30
0.0
 11
146.5411611811055
 21
110.961747627331
 31
0.0
 11
146.445752773655
 21
111.6375349067481
 31
0.0
 11
146.1660323117019
 21
112.2672687479237
 31
0.0
 11
145.7210596405753
 21
112.8080328098073
 31
0.0
 11
145.1411611811054
 21
113.2229765385518
 31
0.0
 11
144.4658543141851
 21
113.4838200892244
 31
0.0
 11
143.7411611811056
 21
113.5727898685164
 31
0.0
  0
SPLINE
  5
255
330
1F
100
AcDbEntity
  8
0
  6
Continuous
 62
     7
100
AcDbSpline
210
0.0
220
0.0
230
1.0
 70
     8
 71
     3
 72
    13
 73
     9
 74
     7
 42
0.000000001
 43
0.0000000001
 44
0.00000001
 40
0.0
 40
0.0
 40
0.0
 40
0.0
 40
0.7301340679649145
 40
1.454066882182693
 40
2.167131057670175
 40
2.867435595252157
 40
3.556498904020777
 40
4.238987884024413
 40
4.238987884024413
 40
4.238987884024413
 40
4.238987884024413
 10
68.34116118110546
 20
113.5727898685164
 30
0.0
 10
68.09715870863353
 20
113.5555867048453
 30
0.0
 10
67.61122615370428
 20
113.5213264749043
 30
0.0
 10
66.93023076381267
 20
113.2494269172502
 30
0.0
 10
66.34268044980601
 20
112.8342522494246
 30
0.0
 10
65.89381243566535
 20
112.2871062382766
 30
0.0
 10
65.59749206037844
 20
111.6486516278976
 30
0.0
 10
65.55987803711363
 20
111.1899827749064
 30
0.0
 10
65.54116118110551
 20
110.961747627331
 30
0.0
 11
68.34116118110546
 21
113.5727898685164
 31
0.0
 11
67.61646804802585
 21
113.4838200892244
 31
0.0
 11
66.94116118110549
 21
113.2229765385518
 31
0.0
 11
66.36126272163567
 21
112.8080328098073
 31
0.0
 11
65.91629005050913
 21
112.2672687479237
 31
0.0
 11
65.63656958855606
 21
111.6375349067481
 31
0.0
 11
65.54116118110551
 21
110.961747627331
 31
0.0
  0
SPLINE
  5
256
330
1F
100
AcDbEntity
  8
0
  6
Continuous
 62
     7
100
AcDbSpline
210
0.0
220
0.0
230
1.0
 70
     8
 71
     3
 72
    11
 73
     7
 74
     5
 42
0.000000001
 43
0.0000000001
 44
0.00000001
 40
0.0
 40
0.0
 40
0.0
 40
0.0
 40
0.1126067740736481
 40
0.2241631912651579
 40
0.3337510563920374
 40
0.4407092467493754
 40
0.4407092467493754
 40
0.4407092467493754
 40
0.4407092467493754
 10
232.8241224526986
 20
131.1823547643346
 30
0.0
 10
232.8617180624447
 20
131.1805386870223
 30
0.0
 10
232.9365586016963
 20
131.1769234573358
 30
0.0
 10
233.0445394440477
 20
131.1474406561352
 30
0.0
 10
233.1452862874239
 20
131.1028300896378
 30
0.0
 10
233.2027416618473
 20
131.0587566992331
 30
0.0
 10
233.2311204838592
 20
131.0369876054167
 30
0.0
 11
232.8241224526986
 21
131.1823547643346
 31
0.0
 11
232.936324985854
 21
131.1728218075686
 31
0.0
 11
233.0442490518174
 21
131.1445865354957
 31
0.0
 11
233.1437792883706
 21
131.0987255214611
 31
0.0
 11
233.2311204838592
 21
131.0369876054167
 31
0.0
  0
ARC
  5
257
330
1F
100
AcDbEntity
  8
1
  6
Continuous
 62
     7
100
AcDbCircle
 10
146.2911613151557
 20
94.182354764336
 30
0.0
 40
0.5
100
AcDbArc
 50
180.0
 51
270.0
  0
ARC
  5
258
330
1F
100
AcDbEntity
  8
1
  6
Continuous
 62
     7
100
AcDbCircle
 10
65.7911613151557
 20
94.182354764336
 30
0.0
 40
0.5
100
AcDbArc
 50
270.0
 51
0.0
  0
ARC
  5
259
102
{ACAD_REACTORS
330
2A5
102
}
330
1F
100
AcDbEntity
  8
1
  6
Continuous
 62
     7
100
AcDbCircle
 10
281.3429673554093
 20
10.07749983983263
 30
0.0
 40
0.3333333333332007
100
AcDbArc
 50
180.0
 51
299.9816393688419
  0
ARC
  5
25A
102
{ACAD_REACTORS
330
2A5
102
}
330
1F
100
AcDbEntity
  8
1
  6
Continuous
 62
     7
100
AcDbCircle
 10
281.3429673554093
 20
14.92250016016737
 30
0.0
 40
0.3333333333333456
100
AcDbArc
 50
60.01836063115814
 51
180.0
  0
ARC
  5
25B
330
1F
100
AcDbEntity
  8
1
  6
Continuous
 62
     7
100
AcDbCircle
 10
287.0094488883026
 20
12.5
 30
0.0
 40
0.1666666666666302
100
AcDbArc
 50
299.9816393688164
 51
60.01836063116308
  0
ARC
  5
25C
330
1F
100
AcDbEntity
  8
1
  6
Continuous
 62
     7
100
AcDbCircle
 10
270.3431524891828
 20
12.5
 30
0.0
 40
0.1666666666666123
100
AcDbArc
 50
119.9816393688877
 51
240.0183606311327
  0
ARC
  5
25D
102
{ACAD_REACTORS
330
2A7
102
}
330
1F
100
AcDbEntity
  8
1
  6
Continuous
 62
     7
100
AcDbCircle
 10
276.3429673554093
 20
10.2700211480327
 30
0.0
 40
0.6666666666666288
100
AcDbArc
 50
180.0000000000104
 51
240.018360631158
  0
ARC
  5
25E
102
{ACAD_REACTORS
330
2A8
102
}
330
1F
100
AcDbEntity
  8
1
  6
Continuous
 62
     7
100
AcDbCircle
 10
278.6763006887427
 20
12.83333333333326
 30
0.0
 40
0.166666666666709
100
AcDbArc
 50
209.9999999999622
 51
330.000000000028
  0
MTEXT
  5
260
330
1F
100
AcDbEntity
  8
1
 62
     7
100
AcDbMText
 10
144.2763006887427
 20
12.5
 30
0.0
 40
4.5
 41
0.0
 71
     4
 72
     1
  1
JPI 25 L\PBulkhead housing 1 lev. - JEI
  7
CONVERTER_11
 73
     1
 44
0.90036014405762
  0
MTEXT
  5
261
330
1F
100
AcDbEntity
  8
1
 62
     7
100
AcDbMText
 10
119.6
 20
12.49999999999987
 30
0.0
 40
3.0
 41
0.0
 71
     4
 72
     1
  1
08/10/14
  7
CONVERTER_11
 73
     1
 44
1.32052821128451
  0
MTEXT
  5
262
330
1F
100
AcDbEntity
  8
1
 62
     7
100
AcDbMText
 10
119.6
 20
7.49999999999987
 30
0.0
 40
3.0
 41
0.0
 71
     4
 72
     1
  1
M.Pezzimenti
  7
CONVERTER_11
 73
     1
 44
1.32052821128451
  0
MTEXT
  5
263
330
1F
100
AcDbEntity
  8
1
 62
     7
100
AcDbMText
 10
256.6763006887427
 20
10.06063942075605
 30
0.0
 40
4.5
 41
0.0
 71
     5
 72
     1
  1
1:1
  7
CONVERTER_11
 73
     1
 44
1.32052821128451
  0
MTEXT
  5
265
330
1F
100
AcDbEntity
  8
1
 62
     7
100
AcDbMText
 10
221.5911785372398
 20
93.83120387153488
 30
0.0
 40
3.5
 41
0.0
 71
     2
 72
     1
  1
 
  7
CONVERTER_12
 73
     1
 44
1.32052821128451
  0
MTEXT
  5
266
330
1F
100
AcDbEntity
  8
1
 62
     7
100
AcDbMText
 10
256.6763006887427
 20
16.26063942075598
 30
0.0
 40
3.0
 41
0.0
 71
     5
 72
     1
  1
Scale
  7
CONVERTER_11
 73
     1
 44
1.32052821128451
  0
MTEXT
  5
267
330
1F
100
AcDbEntity
  8
1
 62
     7
100
AcDbMText
 10
151.4999999999997
 20
194.0000000000001
 30
0.0
 40
4.0
 41
0.0
 71
     5
 72
     1
  1
Diritti riservati      All rights reserved
  7
CONVERTER_11
 73
     1
 44
1.32052821128451
  0
MTEXT
  5
269
330
1F
100
AcDbEntity
  8
1
 62
     7
100
AcDbMText
 10
123.0
 20
17.49999999999994
 30
0.0
 40
2.5
 41
0.0
 71
     5
 72
     1
  1
dimensions in mm
  7
CONVERTER_13
 73
     1
 44
0.60024009603842
  0
MTEXT
  5
26A
330
1F
100
AcDbEntity
  8
1
 62
     7
100
AcDbMText
 10
109.0
 20
12.49999999999987
 30
0.0
 40
3.0
 41
0.0
 71
     4
 72
     1
  1
Date
  7
CONVERTER_11
 73
     1
 44
1.32052821128451
  0
MTEXT
  5
26B
330
1F
100
AcDbEntity
  8
1
 62
     7
100
AcDbMText
 10
109.0
 20
7.49999999999987
 30
0.0
 40
3.0
 41
0.0
 71
     4
 72
     1
  1
Sign.
  7
CONVERTER_11
 73
     1
 44
1.32052821128451
  0
DIMENSION
  5
276
330
1F
100
AcDbEntity
  8
1
100
AcDbDimension
  2
*D2
 10
57.04116118110529
 20
73.12586068583
 30
0.0
 11
106.0411611811053
 21
76.62586068583
 31
0.0
 70
    32
  1
<>
 71
     5
 42
-1.0
 53
0.00013888888889
  3
ME10_DIM_10
100
AcDbAlignedDimension
 13
155.0411611811053
 23
88.38235476433601
 33
0.0
 14
57.04116118110525
 24
88.38235476433601
 34
0.0
100
AcDbRotatedDimension
  0
DIMENSION
  5
281
330
1F
100
AcDbEntity
  8
1
100
AcDbDimension
  2
*D3
 10
177.8300594212511
 20
115.182354764336
 30
0.0
 11
174.3300594212511
 21
101.782354764336
 31
0.0
 70
    32
  1
27
 71
     5
 42
-1.0
 53
90.0
  3
ME10_DIM_11
100
AcDbAlignedDimension
 13
194.4411783252627
 23
88.38235476433601
 33
0.0
 14
195.7411783252626
 24
115.182354764336
 34
0.0
 50
90.0
100
AcDbRotatedDimension
  0
DIMENSION
  5
28C
330
1F
100
AcDbEntity
  8
1
100
AcDbDimension
  2
*D4
 10
194.4411783252627
 20
73.12586068582999
 30
0.0
 11
210.4411783252627
 21
76.62586068582999
 31
0.0
 70
    32
  1
<>
 71
     5
 42
-1.0
 53
0.00013888888889
  3
ME10_DIM_12
100
AcDbAlignedDimension
 13
226.4411783252627
 23
88.38235476433601
 33
0.0
 14
194.4411783252627
 24
88.38235476433601
 34
0.0
100
AcDbRotatedDimension
  0
DIMENSION
  5
299
330
1F
100
AcDbEntity
  8
1
100
AcDbDimension
  2
*D5
 10
239.5269350812021
 20
88.38235476433601
 30
0.0
 11
235.8769350812021
 21
82.5173062427348
 31
0.0
 70
    32
  1
<>
 71
     5
 42
-1.0
 53
90.0
  3
ME10_DIM_13
100
AcDbAlignedDimension
 13
226.4411783252627
 23
91.88235476433601
 33
0.0
 14
226.4411783252627
 24
88.38235476433601
 34
0.0
 50
90.0
100
AcDbRotatedDimension
  0
DIMENSION
  5
2A4
330
1F
100
AcDbEntity
  8
1
100
AcDbDimension
  2
*D6
 10
195.7411783252627
 20
152.4702171543729
 30
0.0
 11
222.1061057165412
 21
155.9702171543729
 31
0.0
 70
    32
  1
55
 71
     5
 42
-1.0
 53
0.00013888888889
  3
ME10_DIM_14
100
AcDbAlignedDimension
 13
248.4710331078196
 23
102.582354764336
 33
0.0
 14
195.7411783252626
 24
115.182354764336
 34
0.0
100
AcDbRotatedDimension
  0
HATCH
  5
2A5
330
1F
100
AcDbEntity
  8
1
  6
Continuous
 62
     7
100
AcDbHatch
 10
0.0
 20
0.0
 30
0.0
210
0.0
220
0.0
230
1.0
  2
SOLID
 70
     1
 71
     1
 91
        1
 92
        1
 93
       14
 72
     1
 10
282.5097265375795
 20
13.86454086225376
 11
281.6763006887427
 21
14.34536346735195
 72
     1
 10
281.6763006887427
 20
14.34536346735195
 11
281.6763006887427
 21
12.83333333333326
 72
     1
 10
281.6763006887427
 20
12.83333333333326
 11
282.6763006887427
 21
12.83333333333326
 72
     2
 10
282.6763006887427
 20
12.5
 40
0.3333333333333695
 50
270.0
 51
450.0
 73
     0
 72
     1
 10
282.6763006887427
 20
12.16666666666663
 11
281.6763006887427
 21
12.16666666666663
 72
     1
 10
281.6763006887427
 20
12.16666666666663
 11
281.6763006887427
 21
10.65463653264794
 72
     1
 10
281.6763006887427
 20
10.65463653264794
 11
282.5097265375795
 21
11.13545913774624
 72
     2
 10
282.6763006887427
 20
10.84673060906323
 40
0.3333333333333172
 50
240.0183606311678
 51
420.0183606311667
 73
     0
 72
     1
 10
282.8428748399058
 20
10.55800208038033
 11
281.5095415065725
 21
9.78877131114973
 72
     2
 10
281.3429673554093
 20
10.07749983983263
 40
0.3333333333332007
 50
60.01836063115814
 51
180.0
 73
     0
 72
     1
 10
281.0096340220761
 20
10.07749983983263
 11
281.0096340220761
 21
14.92250016016737
 72
     2
 10
281.3429673554093
 20
14.92250016016737
 40
0.3333333333333456
 50
180.0
 51
299.9816393688419
 73
     0
 72
     1
 10
281.5095415065725
 20
15.21122868885027
 11
282.8428748399058
 21
14.44199791961944
 72
     2
 10
282.6763006887427
 20
14.15326939093666
 40
0.3333333333333471
 50
299.9816393688436
 51
479.9816393688417
 73
     0
 97
       14
330
19C
330
25A
330
1B3
330
259
330
195
330
209
330
196
330
197
330
198
330
20A
330
199
330
19A
330
19B
330
20B
 75
     0
 76
     1
 98
        1
 10
0.0
 20
0.0
  0
HATCH
  5
2A6
330
1F
100
AcDbEntity
  8
1
  6
Continuous
 62
     7
100
AcDbHatch
 10
0.0
 20
0.0
 30
0.0
210
0.0
220
0.0
230
1.0
  2
SOLID
 70
     1
 71
     1
 91
        1
 92
        1
 93
        5
 72
     1
 10
275.0096340220759
 20
14.15326939093666
 11
275.0096340220759
 21
11.0392519172633
 72
     1
 10
275.0096340220759
 20
11.0392519172633
 11
275.0096340220759
 21
10.84673060906323
 72
     2
 10
274.6763006887427
 20
10.84673060906323
 40
0.3333333333333712
 50
0.0
 51
180.0
 73
     0
 72
     1
 10
274.3429673554093
 20
10.84673060906323
 11
274.3429673554093
 21
14.15326939093666
 72
     2
 10
274.6763006887427
 20
14.15326939093666
 40
0.3333333333332007
 50
180.0
 51
360.0
 73
     0
 97
        5
330
19F
330
19E
330
20C
330
19D
330
20D
 75
     0
 76
     1
 98
        1
 10
0.0
 20
0.0
  0
HATCH
  5
2A7
330
1F
100
AcDbEntity
  8
1
  6
Continuous
 62
     7
100
AcDbHatch
 10
0.0
 20
0.0
 30
0.0
210
0.0
220
0.0
230
1.0
  2
SOLID
 70
     1
 71
     1
 91
        1
 92
        1
 93
        7
 72
     1
 10
276.3429673554093
 20
14.92250016016737
 11
276.3429673554093
 21
10.2700211480327
 72
     1
 10
276.3429673554093
 20
10.2700211480327
 11
278.5095415065725
 21
9.020074522361597
 72
     2
 10
278.3429673554093
 20
8.731345993678701
 40
0.3333333333333709
 50
299.9816393688421
 51
479.9816393688507
 73
     0
 72
     1
 10
278.1763932042461
 20
8.442617464995806
 11
276.009819053083
 21
9.692564090666906
 72
     2
 10
276.3429673554093
 20
10.2700211480327
 40
0.6666666666666288
 50
119.981639368842
 51
179.9999999999896
 73
     0
 72
     1
 10
275.6763006887427
 20
10.27002114803258
 11
275.6763006887427
 21
14.92250016016737
 72
     2
 10
276.0096340220759
 20
14.92250016016737
 40
0.3333333333334281
 50
180.0
 51
360.0
 73
     0
 97
        7
330
1A2
330
1A1
330
20E
330
1A0
330
25D
330
1A3
330
20F
 75
     0
 76
     1
 98
        1
 10
0.0
 20
0.0
  0
HATCH
  5
2A8
330
1F
100
AcDbEntity
  8
1
  6
Continuous
 62
     7
100
AcDbHatch
 10
0.0
 20
0.0
 30
0.0
210
0.0
220
0.0
230
1.0
  2
SOLID
 70
     1
 71
     1
 91
        1
 92
        1
 93
       16
 72
     2
 10
277.2746002345513
 20
15.73121731203457
 40
0.2649662124752854
 50
30.00000000001921
 51
180.0
 73
     1
 72
     1
 10
277.0096340220759
 20
15.73121731203457
 11
277.0096340220759
 21
12.5
 72
     1
 10
277.0096340220759
 20
12.5
 11
277.0096340220759
 21
10.84758507263291
 72
     2
 10
277.3429673554093
 20
10.84758507263291
 40
0.3333333333334281
 50
180.0
 51
360.0
 73
     1
 72
     1
 10
277.6763006887427
 20
10.84758507263291
 11
277.6763006887427
 21
12.5
 72
     1
 10
277.6763006887427
 20
12.5
 11
277.6763006887427
 21
14.23205080756884
 72
     1
 10
277.6763006887427
 20
14.23205080756884
 11
278.5319631214452
 21
12.75
 72
     2
 10
278.6763006887427
 20
12.83333333333326
 40
0.166666666666709
 50
209.9999999999622
 51
330.000000000028
 73
     1
 72
     1
 10
278.8206382560401
 20
12.75
 11
279.6763006887427
 21
14.23205080756884
 72
     1
 10
279.6763006887427
 20
14.23205080756884
 11
279.6763006887427
 21
12.5
 72
     1
 10
279.6763006887427
 20
12.5
 11
279.6763006887427
 21
9.308269070601796
 72
     2
 10
280.0096340220761
 20
9.308269070601796
 40
0.3333333333334281
 50
180.0
 51
360.0
 73
     1
 72
     1
 10
280.3429673554093
 20
9.308269070601796
 11
280.3429673554093
 21
15.73121731203457
 72
     2
 10
280.078001142934
 20
15.73121731203457
 40
0.2649662124753149
 50
0.0
 51
149.9999999999685
 73
     1
 72
     1
 10
279.848533671786
 20
15.86370041827229
 11
278.6763006887427
 21
13.83333333333326
 72
     1
 10
278.6763006887427
 20
13.83333333333326
 11
277.5040677056994
 21
15.86370041827229
 97
       16
330
1A4
330
210
330
1A5
330
211
330
1A6
330
1B2
330
1B1
330
25E
330
1B0
330
1AF
330
1A7
330
212
330
1A8
330
1AA
330
213
330
1A9
 75
     0
 76
     1
 98
        1
 10
0.0
 20
0.0
  0
ENDSEC
  0
SECTION
  2
OBJECTS
  0
DICTIONARY
  5
C
330
0
100
AcDbDictionary
281
     1
  3
ACAD_GROUP
350
D
  3
ACAD_LAYOUT
350
1A
  3
ACAD_MATERIAL
350
3B
  3
ACAD_MLEADERSTYLE
350
2AB
  3
ACAD_MLINESTYLE
350
17
  3
ACAD_PLOTSETTINGS
350
19
  3
ACAD_PLOTSTYLENAME
350
E
  3
ACAD_VISUALSTYLE
350
2A
  3
AcDbVariableDictionary
350
2A9
  0
DICTIONARY
  5
D
102
{ACAD_REACTORS
330
C
102
}
330
C
100
AcDbDictionary
281
     1
  0
DICTIONARY
  5
1A
102
{ACAD_REACTORS
330
C
102
}
330
C
100
AcDbDictionary
281
     1
  3
Layout1
350
1E
  3
Layout2
350
26
  3
Model
350
22
  0
DICTIONARY
  5
3B
102
{ACAD_REACTORS
330
C
102
}
330
C
100
AcDbDictionary
281
     1
  3
ByBlock
350
3D
  3
ByLayer
350
3C
  3
Global
350
3E
  0
DICTIONARY
  5
2AB
102
{ACAD_REACTORS
330
C
102
}
330
C
100
AcDbDictionary
281
     1
  0
DICTIONARY
  5
17
102
{ACAD_REACTORS
330
C
102
}
330
C
100
AcDbDictionary
281
     1
  3
Standard
350
18
  0
DICTIONARY
  5
19
102
{ACAD_REACTORS
330
C
102
}
330
C
100
AcDbDictionary
281
     1
  0
ACDBDICTIONARYWDFLT
  5
E
102
{ACAD_REACTORS
330
C
102
}
330
C
100
AcDbDictionary
281
     1
  3
Normal
350
F
100
AcDbDictionaryWithDefault
340
F
  0
DICTIONARY
  5
2A
102
{ACAD_REACTORS
330
C
102
}
330
C
100
AcDbDictionary
281
     1
  3
2dWireframe
350
2F
  3
3D Hidden
350
31
  3
3dWireframe
350
30
  3
Basic
350
32
  3
Brighten
350
36
  3
ColorChange
350
3A
  3
Conceptual
350
34
  3
Dim
350
35
  3
Facepattern
350
39
  3
Flat
350
2B
  3
FlatWithEdges
350
2C
  3
Gouraud
350
2D
  3
GouraudWithEdges
350
2E
  3
Linepattern
350
38
  3
Realistic
350
33
  3
Thicken
350
37
  0
DICTIONARY
  5
2A9
102
{ACAD_REACTORS
330
C
102
}
330
C
100
AcDbDictionary
281
     1
  3
DIMASSOC
350
2AC
  3
HIDETEXT
350
2AD
  0
LAYOUT
  5
1E
102
{ACAD_REACTORS
330
1A
102
}
330
1A
100
AcDbPlotSettings
  1

  2
none_device
  4

  6

 40
0.0
 41
0.0
 42
0.0
 43
0.0
 44
0.0
 45
0.0
 46
0.0
 47
0.0
 48
0.0
 49
0.0
140
0.0
141
0.0
142
1.0
143
1.0
 70
   688
 72
     0
 73
     0
 74
     5
  7

 75
    16
147
1.0
148
0.0
149
0.0
100
AcDbLayout
  1
Layout1
 70
     1
 71
     1
 10
0.0
 20
0.0
 11
12.0
 21
9.0
 12
0.0
 22
0.0
 32
0.0
 14
1.00000000000000E+20
 24
1.00000000000000E+20
 34
1.00000000000000E+20
 15
-1.00000000000000E+20
 25
-1.00000000000000E+20
 35
-1.00000000000000E+20
146
0.0
 13
0.0
 23
0.0
 33
0.0
 16
1.0
 26
0.0
 36
0.0
 17
0.0
 27
1.0
 37
0.0
 76
     0
330
1B
  0
LAYOUT
  5
26
102
{ACAD_REACTORS
330
1A
102
}
330
1A
100
AcDbPlotSettings
  1

  2
none_device
  4

  6

 40
0.0
 41
0.0
 42
0.0
 43
0.0
 44
0.0
 45
0.0
 46
0.0
 47
0.0
 48
0.0
 49
0.0
140
0.0
141
0.0
142
1.0
143
1.0
 70
   688
 72
     0
 73
     0
 74
     5
  7

 75
    16
147
1.0
148
0.0
149
0.0
100
AcDbLayout
  1
Layout2
 70
     1
 71
     2
 10
0.0
 20
0.0
 11
0.0
 21
0.0
 12
0.0
 22
0.0
 32
0.0
 14
0.0
 24
0.0
 34
0.0
 15
0.0
 25
0.0
 35
0.0
146
0.0
 13
0.0
 23
0.0
 33
0.0
 16
1.0
 26
0.0
 36
0.0
 17
0.0
 27
1.0
 37
0.0
 76
     0
330
23
  0
LAYOUT
  5
22
102
{ACAD_REACTORS
330
1A
102
}
330
1A
100
AcDbPlotSettings
  1

  2
none_device
  4

  6

 40
0.0
 41
0.0
 42
0.0
 43
0.0
 44
0.0
 45
0.0
 46
0.0
 47
0.0
 48
0.0
 49
0.0
140
0.0
141
0.0
142
1.0
143
1.0
 70
  1712
 72
     0
 73
     0
 74
     0
  7

 75
     0
147
1.0
148
0.0
149
0.0
100
AcDbLayout
  1
Model
 70
     1
 71
     0
 10
0.0
 20
0.0
 11
12.0
 21
9.0
 12
0.0
 22
0.0
 32
0.0
 14
-0.00000000000011
 24
0.0
 34
0.0
 15
297.0
 25
210.0000000000001
 35
0.0
146
0.0
 13
0.0
 23
0.0
 33
0.0
 16
1.0
 26
0.0
 36
0.0
 17
0.0
 27
1.0
 37
0.0
 76
     0
330
1F
331
29
  0
MATERIAL
  5
3D
102
{ACAD_REACTORS
330
3B
102
}
102
{ACAD_XDICTIONARY
360
2D0
102
}
330
3B
100
AcDbMaterial
  1
ByBlock
  0
MATERIAL
  5
3C
102
{ACAD_REACTORS
330
3B
102
}
102
{ACAD_XDICTIONARY
360
2CE
102
}
330
3B
100
AcDbMaterial
  1
ByLayer
  0
MATERIAL
  5
3E
102
{ACAD_REACTORS
330
3B
102
}
102
{ACAD_XDICTIONARY
360
2D2
102
}
330
3B
100
AcDbMaterial
  1
Global
  0
MLINESTYLE
  5
18
102
{ACAD_REACTORS
330
17
102
}
330
17
100
AcDbMlineStyle
  2
Standard
 70
     0
  3

 62
   256
 51
90.0
 52
90.0
 71
     2
 49
0.5
 62
   256
  6
BYLAYER
 49
-0.5
 62
   256
  6
BYLAYER
  0
ACDBPLACEHOLDER
  5
F
102
{ACAD_REACTORS
330
E
102
}
330
E
  0
VISUALSTYLE
  5
2F
102
{ACAD_REACTORS
330
2A
102
}
102
{ACAD_XDICTIONARY
360
2B6
102
}
330
2A
100
AcDbVisualStyle
  2
2dWireframe
 70
     4
 71
     0
 72
     2
 73
     0
 90
        0
 40
-0.6
 41
-30.0
 62
     5
 63
     7
 74
     1
 91
        4
 64
     7
 65
   257
 75
     1
175
     1
 42
1.0
 92
        0
 66
   257
 43
1.0
 76
     1
 77
     6
 78
     2
 67
     7
 79
     5
170
     0
171
     0
290
     0
174
     0
 93
        1
 44
0.0
173
     0
291
     0
 45
0.0
1001
ACAD
1000
AcDbSavedByObjectVersion
1070
     0
  0
VISUALSTYLE
  5
31
102
{ACAD_REACTORS
330
2A
102
}
102
{ACAD_XDICTIONARY
360
2BA
102
}
330
2A
100
AcDbVisualStyle
  2
3D Hidden
 70
     6
 71
     1
 72
     2
 73
     2
 90
        0
 40
-0.6
 41
-30.0
 62
     5
 63
     7
 74
     2
 91
        2
 64
     7
 65
   257
 75
     2
175
     1
 42
40.0
 92
        0
 66
   257
 43
1.0
 76
     1
 77
     6
 78
     2
 67
     7
 79
     3
170
     0
171
     0
290
     0
174
     0
 93
        1
 44
0.0
173
     0
291
     0
 45
0.0
1001
ACAD
1000
AcDbSavedByObjectVersion
1070
     0
  0
VISUALSTYLE
  5
30
102
{ACAD_REACTORS
330
2A
102
}
102
{ACAD_XDICTIONARY
360
2B8
102
}
330
2A
100
AcDbVisualStyle
  2
3dWireframe
 70
     5
 71
     0
 72
     2
 73
     0
 90
        0
 40
-0.6
 41
-30.0
 62
     5
 63
     7
 74
     1
 91
        4
 64
     7
 65
   257
 75
     1
175
     1
 42
1.0
 92
        0
 66
   257
 43
1.0
 76
     1
 77
     6
 78
     2
 67
     7
 79
     5
170
     0
171
     0
290
     0
174
     0
 93
        1
 44
0.0
173
     0
291
     0
 45
0.0
1001
ACAD
1000
AcDbSavedByObjectVersion
1070
     0
  0
VISUALSTYLE
  5
32
102
{ACAD_REACTORS
330
2A
102
}
102
{ACAD_XDICTIONARY
360
2BC
102
}
330
2A
100
AcDbVisualStyle
  2
Basic
 70
     7
 71
     1
 72
     0
 73
     1
 90
        0
 40
-0.6
 41
-30.0
 62
     5
 63
     7
 74
     0
 91
        4
 64
     7
 65
   257
 75
     1
175
     1
 42
1.0
 92
        8
 66
     7
 43
1.0
 76
     1
 77
     6
 78
     2
 67
     7
 79
     5
170
     0
171
     0
290
     0
174
     0
 93
        1
 44
0.0
173
     0
291
     1
 45
0.0
1001
ACAD
1000
AcDbSavedByObjectVersion
1070
     0
  0
VISUALSTYLE
  5
36
102
{ACAD_REACTORS
330
2A
102
}
102
{ACAD_XDICTIONARY
360
2C4
102
}
330
2A
100
AcDbVisualStyle
  2
Brighten
 70
    12
 71
     2
 72
     2
 73
     0
 90
        0
 40
-0.6
 41
-30.0
 62
     5
 63
     7
 74
     1
 91
        4
 64
     7
 65
   257
 75
     1
175
     1
 42
1.0
 92
        8
 66
     7
 43
1.0
 76
     1
 77
     6
 78
     2
 67
     7
 79
     5
170
     0
171
     0
290
     0
174
     0
 93
        1
 44
50.0
173
     0
291
     1
 45
0.0
1001
ACAD
1000
AcDbSavedByObjectVersion
1070
     0
  0
VISUALSTYLE
  5
3A
102
{ACAD_REACTORS
330
2A
102
}
102
{ACAD_XDICTIONARY
360
2CC
102
}
330
2A
100
AcDbVisualStyle
  2
ColorChange
 70
    16
 71
     2
 72
     2
 73
     3
 90
        0
 40
-0.6
 41
-30.0
 62
     5
 63
     8
 74
     1
 91
        4
 64
     7
 65
   257
 75
     1
175
     1
 42
1.0
 92
        8
 66
     8
 43
1.0
 76
     1
 77
     6
 78
     2
 67
     7
 79
     5
170
     0
171
     0
290
     0
174
     0
 93
        1
 44
0.0
173
     0
291
     1
 45
0.0
1001
ACAD
1000
AcDbSavedByObjectVersion
1070
     0
  0
VISUALSTYLE
  5
34
102
{ACAD_REACTORS
330
2A
102
}
102
{ACAD_XDICTIONARY
360
2C0
102
}
330
2A
100
AcDbVisualStyle
  2
Conceptual
 70
     9
 71
     3
 72
     2
 73
     0
 90
        0
 40
-0.6
 41
-30.0
 62
     5
 63
     7
 74
     2
 91
        2
 64
     7
 65
   257
 75
     1
175
     1
 42
40.0
 92
        8
 66
     7
 43
1.0
 76
     1
 77
     6
 78
     2
 67
     7
 79
     3
170
     0
171
     0
290
     0
174
     0
 93
        1
 44
0.0
173
     0
291
     0
 45
0.0
1001
ACAD
1000
AcDbSavedByObjectVersion
1070
     0
  0
VISUALSTYLE
  5
35
102
{ACAD_REACTORS
330
2A
102
}
102
{ACAD_XDICTIONARY
360
2C2
102
}
330
2A
100
AcDbVisualStyle
  2
Dim
 70
    11
 71
     2
 72
     2
 73
     0
 90
        0
 40
-0.6
 41
-30.0
 62
     5
 63
     7
 74
     1
 91
        4
 64
     7
 65
   257
 75
     1
175
     1
 42
1.0
 92
        8
 66
     7
 43
1.0
 76
     1
 77
     6
 78
     2
 67
     7
 79
     5
170
     0
171
     0
290
     0
174
     0
 93
        1
 44
-50.0
173
     0
291
     1
 45
0.0
1001
ACAD
1000
AcDbSavedByObjectVersion
1070
     0
  0
VISUALSTYLE
  5
39
102
{ACAD_REACTORS
330
2A
102
}
102
{ACAD_XDICTIONARY
360
2CA
102
}
330
2A
100
AcDbVisualStyle
  2
Facepattern
 70
    15
 71
     2
 72
     2
 73
     0
 90
        0
 40
-0.6
 41
-30.0
 62
     5
 63
     7
 74
     1
 91
        4
 64
     7
 65
   257
 75
     1
175
     1
 42
1.0
 92
        8
 66
     7
 43
1.0
 76
     1
 77
     6
 78
     2
 67
     7
 79
     5
170
     0
171
     0
290
     0
174
     0
 93
        1
 44
0.0
173
     0
291
     1
 45
0.0
1001
ACAD
1000
AcDbSavedByObjectVersion
1070
     0
  0
VISUALSTYLE
  5
2B
102
{ACAD_REACTORS
330
2A
102
}
102
{ACAD_XDICTIONARY
360
2AE
102
}
330
2A
100
AcDbVisualStyle
  2
Flat
 70
     0
 71
     2
 72
     1
 73
     1
 90
        2
 40
-0.6
 41
30.0
 62
     5
 63
     7
 74
     0
 91
        4
 64
     7
 65
   257
 75
     1
175
     1
 42
1.0
 92
        8
 66
     7
 43
1.0
 76
     1
 77
     6
 78
     2
 67
     7
 79
     5
170
     0
171
     0
290
     0
174
     0
 93
       13
 44
0.0
173
     0
291
     1
 45
0.0
1001
ACAD
1000
AcDbSavedByObjectVersion
1070
     0
  0
VISUALSTYLE
  5
2C
102
{ACAD_REACTORS
330
2A
102
}
102
{ACAD_XDICTIONARY
360
2B0
102
}
330
2A
100
AcDbVisualStyle
  2
FlatWithEdges
 70
     1
 71
     2
 72
     1
 73
     1
 90
        2
 40
-0.6
 41
30.0
 62
     5
 63
     7
 74
     1
 91
        4
 64
     7
 65
   257
 75
     1
175
     1
 42
1.0
 92
        0
 66
   257
 43
1.0
 76
     1
 77
     6
 78
     2
 67
     7
 79
     5
170
     0
171
     0
290
     0
174
     0
 93
       13
 44
0.0
173
     0
291
     1
 45
0.0
1001
ACAD
1000
AcDbSavedByObjectVersion
1070
     0
  0
VISUALSTYLE
  5
2D
102
{ACAD_REACTORS
330
2A
102
}
102
{ACAD_XDICTIONARY
360
2B2
102
}
330
2A
100
AcDbVisualStyle
  2
Gouraud
 70
     2
 71
     2
 72
     2
 73
     1
 90
        2
 40
-0.6
 41
30.0
 62
     5
 63
     7
 74
     0
 91
        4
 64
     7
 65
   257
 75
     1
175
     1
 42
1.0
 92
        0
 66
     7
 43
1.0
 76
     1
 77
     6
 78
     2
 67
     7
 79
     5
170
     0
171
     0
290
     0
174
     0
 93
       13
 44
0.0
173
     0
291
     1
 45
0.0
1001
ACAD
1000
AcDbSavedByObjectVersion
1070
     0
  0
VISUALSTYLE
  5
2E
102
{ACAD_REACTORS
330
2A
102
}
102
{ACAD_XDICTIONARY
360
2B4
102
}
330
2A
100
AcDbVisualStyle
  2
GouraudWithEdges
 70
     3
 71
     2
 72
     2
 73
     1
 90
        2
 40
-0.6
 41
30.0
 62
     5
 63
     7
 74
     1
 91
        4
 64
     7
 65
   257
 75
     1
175
     1
 42
1.0
 92
        0
 66
   257
 43
1.0
 76
     1
 77
     6
 78
     2
 67
     7
 79
     5
170
     0
171
     0
290
     0
174
     0
 93
       13
 44
0.0
173
     0
291
     1
 45
0.0
1001
ACAD
1000
AcDbSavedByObjectVersion
1070
     0
  0
VISUALSTYLE
  5
38
102
{ACAD_REACTORS
330
2A
102
}
102
{ACAD_XDICTIONARY
360
2C8
102
}
330
2A
100
AcDbVisualStyle
  2
Linepattern
 70
    14
 71
     2
 72
     2
 73
     0
 90
        0
 40
-0.6
 41
-30.0
 62
     5
 63
     7
 74
     1
 91
        4
 64
     7
 65
   257
 75
     7
175
     7
 42
1.0
 92
        8
 66
     7
 43
1.0
 76
     1
 77
     6
 78
     2
 67
     7
 79
     5
170
     0
171
     0
290
     0
174
     0
 93
        1
 44
0.0
173
     0
291
     1
 45
0.0
1001
ACAD
1000
AcDbSavedByObjectVersion
1070
     0
  0
VISUALSTYLE
  5
33
102
{ACAD_REACTORS
330
2A
102
}
102
{ACAD_XDICTIONARY
360
2BE
102
}
330
2A
100
AcDbVisualStyle
  2
Realistic
 70
     8
 71
     2
 72
     2
 73
     0
 90
        0
 40
-0.6
 41
-30.0
 62
     5
 63
     7
 74
     1
 91
        0
 64
     7
 65
   257
 75
     1
175
     1
 42
1.0
 92
        8
 66
     8
 43
1.0
 76
     1
 77
     6
 78
     2
 67
     7
 79
     5
170
     0
171
     0
290
     0
174
     0
 93
       13
 44
0.0
173
     0
291
     0
 45
0.0
1001
ACAD
1000
AcDbSavedByObjectVersion
1070
     0
  0
VISUALSTYLE
  5
37
102
{ACAD_REACTORS
330
2A
102
}
102
{ACAD_XDICTIONARY
360
2C6
102
}
330
2A
100
AcDbVisualStyle
  2
Thicken
 70
    13
 71
     2
 72
     2
 73
     0
 90
        0
 40
-0.6
 41
-30.0
 62
     5
 63
     7
 74
     1
 91
        4
 64
     7
 65
   257
 75
     1
175
     1
 42
1.0
 92
       12
 66
     7
 43
1.0
 76
     1
 77
     6
 78
     2
 67
     7
 79
     5
170
     0
171
     0
290
     0
174
     0
 93
        1
 44
0.0
173
     0
291
     1
 45
0.0
1001
ACAD
1000
AcDbSavedByObjectVersion
1070
     0
  0
DICTIONARYVAR
  5
2AC
102
{ACAD_REACTORS
330
2A9
102
}
330
2A9
100
DictionaryVariables
280
     0
  1
2
  0
DICTIONARYVAR
  5
2AD
102
{ACAD_REACTORS
330
2A9
102
}
330
2A9
100
DictionaryVariables
280
     0
  1
1
  0
DICTIONARY
  5
2D0
330
3D
100
AcDbDictionary
280
     1
281
     1
  3
ACAD_XREC_ROUNDTRIP
360
2D1
  0
DICTIONARY
  5
2CE
330
3C
100
AcDbDictionary
280
     1
281
     1
  3
ACAD_XREC_ROUNDTRIP
360
2CF
  0
DICTIONARY
  5
2D2
330
3E
100
AcDbDictionary
280
     1
281
     1
  3
ACAD_XREC_ROUNDTRIP
360
2D3
  0
DICTIONARY
  5
2B6
330
2F
100
AcDbDictionary
280
     1
281
     1
  3
ACAD_XREC_ROUNDTRIP
360
2B7
  0
DICTIONARY
  5
2BA
330
31
100
AcDbDictionary
280
     1
281
     1
  3
ACAD_XREC_ROUNDTRIP
360
2BB
  0
DICTIONARY
  5
2B8
330
30
100
AcDbDictionary
280
     1
281
     1
  3
ACAD_XREC_ROUNDTRIP
360
2B9
  0
DICTIONARY
  5
2BC
330
32
100
AcDbDictionary
280
     1
281
     1
  3
ACAD_XREC_ROUNDTRIP
360
2BD
  0
DICTIONARY
  5
2C4
330
36
100
AcDbDictionary
280
     1
281
     1
  3
ACAD_XREC_ROUNDTRIP
360
2C5
  0
DICTIONARY
  5
2CC
330
3A
100
AcDbDictionary
280
     1
281
     1
  3
ACAD_XREC_ROUNDTRIP
360
2CD
  0
DICTIONARY
  5
2C0
330
34
100
AcDbDictionary
280
     1
281
     1
  3
ACAD_XREC_ROUNDTRIP
360
2C1
  0
DICTIONARY
  5
2C2
330
35
100
AcDbDictionary
280
     1
281
     1
  3
ACAD_XREC_ROUNDTRIP
360
2C3
  0
DICTIONARY
  5
2CA
330
39
100
AcDbDictionary
280
     1
281
     1
  3
ACAD_XREC_ROUNDTRIP
360
2CB
  0
DICTIONARY
  5
2AE
330
2B
100
AcDbDictionary
280
     1
281
     1
  3
ACAD_XREC_ROUNDTRIP
360
2AF
  0
DICTIONARY
  5
2B0
330
2C
100
AcDbDictionary
280
     1
281
     1
  3
ACAD_XREC_ROUNDTRIP
360
2B1
  0
DICTIONARY
  5
2B2
330
2D
100
AcDbDictionary
280
     1
281
     1
  3
ACAD_XREC_ROUNDTRIP
360
2B3
  0
DICTIONARY
  5
2B4
330
2E
100
AcDbDictionary
280
     1
281
     1
  3
ACAD_XREC_ROUNDTRIP
360
2B5
  0
DICTIONARY
  5
2C8
330
38
100
AcDbDictionary
280
     1
281
     1
  3
ACAD_XREC_ROUNDTRIP
360
2C9
  0
DICTIONARY
  5
2BE
330
33
100
AcDbDictionary
280
     1
281
     1
  3
ACAD_XREC_ROUNDTRIP
360
2BF
  0
DICTIONARY
  5
2C6
330
37
100
AcDbDictionary
280
     1
281
     1
  3
ACAD_XREC_ROUNDTRIP
360
2C7
  0
XRECORD
  5
2D1
102
{ACAD_REACTORS
330
2D0
102
}
330
2D0
100
AcDbXrecord
280
     1
102
MATERIAL
148
0.0
149
0.0
149
0.0
 93
        0
 94
      127
282
     0
 72
     1
 77
     1
171
     1
175
     1
179
     1
273
     0
  0
XRECORD
  5
2CF
102
{ACAD_REACTORS
330
2CE
102
}
330
2CE
100
AcDbXrecord
280
     1
102
MATERIAL
148
0.0
149
0.0
149
0.0
 93
        0
 94
      127
282
     0
 72
     1
 77
     1
171
     1
175
     1
179
     1
273
     0
  0
XRECORD
  5
2D3
102
{ACAD_REACTORS
330
2D2
102
}
330
2D2
100
AcDbXrecord
280
     1
102
MATERIAL
148
0.0
149
0.0
149
0.0
 93
        0
 94
      127
282
     0
 72
     1
 77
     1
171
     1
175
     1
179
     1
273
     0
  0
XRECORD
  5
2B7
102
{ACAD_REACTORS
330
2B6
102
}
330
2B6
100
AcDbXrecord
280
     1
102
RTVSPropertyOp0
 70
     1
102
RTVSPropertyOp1
 70
     1
102
RTVSPropertyOp2
 70
     1
102
RTVSPropertyOp3
 70
     1
102
RTVSPropertyOp4
 70
     1
102
RTVSPropertyOp5
 70
     1
102
RTVSPropertyOp6
 70
     1
102
RTVSPropertyOp7
 70
     1
102
RTVSPropertyOp8
 70
     1
102
RTVSPropertyOp9
 70
     1
102
RTVSPropertyOp10
 70
     1
102
RTVSPropertyOp11
 70
     1
102
RTVSPropertyOp12
 70
     1
102
RTVSPropertyOp13
 70
     1
102
RTVSPropertyOp14
 70
     1
102
RTVSPropertyOp15
 70
     1
102
RTVSPropertyOp16
 70
     1
102
RTVSPropertyOp17
 70
     1
102
RTVSPropertyOp18
 70
     1
102
RTVSPropertyOp19
 70
     1
102
RTVSPropertyOp20
 70
     1
102
RTVSPropertyOp21
 70
     1
102
RTVSPropertyOp22
 70
     1
102
RTVSPropertyOp23
 70
     1
102
RTVSPropertyOp24
 70
     1
102
RTVSPropertyOp25
 70
     1
102
RTVSPropertyOp26
 70
     1
102
RTVSPropertyOp27
 70
     1
102
RTVSPropertyOp28
 70
     1
102
RTVSPropertyOp29
 70
     1
102
RTVSPropertyOp30
 70
     1
102
RTVSPropertyOp31
 70
     1
102
RTVSPropertyOp32
 70
     1
  0
XRECORD
  5
2BB
102
{ACAD_REACTORS
330
2BA
102
}
330
2BA
100
AcDbXrecord
280
     1
102
RTVSPropertyOp0
 70
     1
102
RTVSPropertyOp1
 70
     1
102
RTVSPropertyOp2
 70
     1
102
RTVSPropertyOp3
 70
     1
102
RTVSPropertyOp4
 70
     1
102
RTVSPropertyOp5
 70
     1
102
RTVSPropertyOp6
 70
     1
102
RTVSPropertyOp7
 70
     1
102
RTVSPropertyOp8
 70
     1
102
RTVSPropertyOp9
 70
     1
102
RTVSPropertyOp10
 70
     1
102
RTVSPropertyOp11
 70
     1
102
RTVSPropertyOp12
 70
     1
102
RTVSPropertyOp13
 70
     1
102
RTVSPropertyOp14
 70
     1
102
RTVSPropertyOp15
 70
     1
102
RTVSPropertyOp16
 70
     1
102
RTVSPropertyOp17
 70
     1
102
RTVSPropertyOp18
 70
     1
102
RTVSPropertyOp19
 70
     1
102
RTVSPropertyOp20
 70
     1
102
RTVSPropertyOp21
 70
     1
102
RTVSPropertyOp22
 70
     1
102
RTVSPropertyOp23
 70
     1
102
RTVSPropertyOp24
 70
     1
102
RTVSPropertyOp25
 70
     1
102
RTVSPropertyOp26
 70
     1
102
RTVSPropertyOp27
 70
     1
102
RTVSPropertyOp28
 70
     1
102
RTVSPropertyOp29
 70
     1
102
RTVSPropertyOp30
 70
     1
102
RTVSPropertyOp31
 70
     1
102
RTVSPropertyOp32
 70
     1
  0
XRECORD
  5
2B9
102
{ACAD_REACTORS
330
2B8
102
}
330
2B8
100
AcDbXrecord
280
     1
102
RTVSPropertyOp0
 70
     1
102
RTVSPropertyOp1
 70
     1
102
RTVSPropertyOp2
 70
     1
102
RTVSPropertyOp3
 70
     1
102
RTVSPropertyOp4
 70
     1
102
RTVSPropertyOp5
 70
     1
102
RTVSPropertyOp6
 70
     1
102
RTVSPropertyOp7
 70
     1
102
RTVSPropertyOp8
 70
     1
102
RTVSPropertyOp9
 70
     1
102
RTVSPropertyOp10
 70
     1
102
RTVSPropertyOp11
 70
     1
102
RTVSPropertyOp12
 70
     1
102
RTVSPropertyOp13
 70
     1
102
RTVSPropertyOp14
 70
     1
102
RTVSPropertyOp15
 70
     1
102
RTVSPropertyOp16
 70
     1
102
RTVSPropertyOp17
 70
     1
102
RTVSPropertyOp18
 70
     1
102
RTVSPropertyOp19
 70
     1
102
RTVSPropertyOp20
 70
     1
102
RTVSPropertyOp21
 70
     1
102
RTVSPropertyOp22
 70
     1
102
RTVSPropertyOp23
 70
     1
102
RTVSPropertyOp24
 70
     1
102
RTVSPropertyOp25
 70
     1
102
RTVSPropertyOp26
 70
     1
102
RTVSPropertyOp27
 70
     1
102
RTVSPropertyOp28
 70
     1
102
RTVSPropertyOp29
 70
     1
102
RTVSPropertyOp30
 70
     1
102
RTVSPropertyOp31
 70
     1
102
RTVSPropertyOp32
 70
     1
  0
XRECORD
  5
2BD
102
{ACAD_REACTORS
330
2BC
102
}
330
2BC
100
AcDbXrecord
280
     1
102
RTVSPropertyOp0
 70
     1
102
RTVSPropertyOp1
 70
     1
102
RTVSPropertyOp2
 70
     1
102
RTVSPropertyOp3
 70
     1
102
RTVSPropertyOp4
 70
     1
102
RTVSPropertyOp5
 70
     1
102
RTVSPropertyOp6
 70
     1
102
RTVSPropertyOp7
 70
     1
102
RTVSPropertyOp8
 70
     1
102
RTVSPropertyOp9
 70
     1
102
RTVSPropertyOp10
 70
     1
102
RTVSPropertyOp11
 70
     1
102
RTVSPropertyOp12
 70
     1
102
RTVSPropertyOp13
 70
     1
102
RTVSPropertyOp14
 70
     1
102
RTVSPropertyOp15
 70
     1
102
RTVSPropertyOp16
 70
     1
102
RTVSPropertyOp17
 70
     1
102
RTVSPropertyOp18
 70
     1
102
RTVSPropertyOp19
 70
     1
102
RTVSPropertyOp20
 70
     1
102
RTVSPropertyOp21
 70
     1
102
RTVSPropertyOp22
 70
     1
102
RTVSPropertyOp23
 70
     1
102
RTVSPropertyOp24
 70
     1
102
RTVSPropertyOp25
 70
     1
102
RTVSPropertyOp26
 70
     1
102
RTVSPropertyOp27
 70
     1
102
RTVSPropertyOp28
 70
     1
102
RTVSPropertyOp29
 70
     1
102
RTVSPropertyOp30
 70
     1
102
RTVSPropertyOp31
 70
     1
102
RTVSPropertyOp32
 70
     1
  0
XRECORD
  5
2C5
102
{ACAD_REACTORS
330
2C4
102
}
330
2C4
100
AcDbXrecord
280
     1
102
RTVSPropertyOp0
 70
     1
102
RTVSPropertyOp1
 70
     1
102
RTVSPropertyOp2
 70
     1
102
RTVSPropertyOp3
 70
     1
102
RTVSPropertyOp4
 70
     1
102
RTVSPropertyOp5
 70
     1
102
RTVSPropertyOp6
 70
     1
102
RTVSPropertyOp7
 70
     1
102
RTVSPropertyOp8
 70
     1
102
RTVSPropertyOp9
 70
     1
102
RTVSPropertyOp10
 70
     1
102
RTVSPropertyOp11
 70
     1
102
RTVSPropertyOp12
 70
     1
102
RTVSPropertyOp13
 70
     1
102
RTVSPropertyOp14
 70
     1
102
RTVSPropertyOp15
 70
     1
102
RTVSPropertyOp16
 70
     1
102
RTVSPropertyOp17
 70
     1
102
RTVSPropertyOp18
 70
     1
102
RTVSPropertyOp19
 70
     1
102
RTVSPropertyOp20
 70
     1
102
RTVSPropertyOp21
 70
     1
102
RTVSPropertyOp22
 70
     1
102
RTVSPropertyOp23
 70
     1
102
RTVSPropertyOp24
 70
     1
102
RTVSPropertyOp25
 70
     1
102
RTVSPropertyOp26
 70
     1
102
RTVSPropertyOp27
 70
     1
102
RTVSPropertyOp28
 70
     1
102
RTVSPropertyOp29
 70
     1
102
RTVSPropertyOp30
 70
     1
102
RTVSPropertyOp31
 70
     1
102
RTVSPropertyOp32
 70
     1
  0
XRECORD
  5
2CD
102
{ACAD_REACTORS
330
2CC
102
}
330
2CC
100
AcDbXrecord
280
     1
102
RTVSPropertyOp0
 70
     1
102
RTVSPropertyOp1
 70
     1
102
RTVSPropertyOp2
 70
     1
102
RTVSPropertyOp3
 70
     1
102
RTVSPropertyOp4
 70
     1
102
RTVSPropertyOp5
 70
     1
102
RTVSPropertyOp6
 70
     1
102
RTVSPropertyOp7
 70
     1
102
RTVSPropertyOp8
 70
     1
102
RTVSPropertyOp9
 70
     1
102
RTVSPropertyOp10
 70
     1
102
RTVSPropertyOp11
 70
     1
102
RTVSPropertyOp12
 70
     1
102
RTVSPropertyOp13
 70
     1
102
RTVSPropertyOp14
 70
     1
102
RTVSPropertyOp15
 70
     1
102
RTVSPropertyOp16
 70
     1
102
RTVSPropertyOp17
 70
     1
102
RTVSPropertyOp18
 70
     1
102
RTVSPropertyOp19
 70
     1
102
RTVSPropertyOp20
 70
     1
102
RTVSPropertyOp21
 70
     1
102
RTVSPropertyOp22
 70
     1
102
RTVSPropertyOp23
 70
     1
102
RTVSPropertyOp24
 70
     1
102
RTVSPropertyOp25
 70
     1
102
RTVSPropertyOp26
 70
     1
102
RTVSPropertyOp27
 70
     1
102
RTVSPropertyOp28
 70
     1
102
RTVSPropertyOp29
 70
     1
102
RTVSPropertyOp30
 70
     1
102
RTVSPropertyOp31
 70
     1
102
RTVSPropertyOp32
 70
     1
  0
XRECORD
  5
2C1
102
{ACAD_REACTORS
330
2C0
102
}
330
2C0
100
AcDbXrecord
280
     1
102
RTVSPropertyOp0
 70
     1
102
RTVSPropertyOp1
 70
     1
102
RTVSPropertyOp2
 70
     1
102
RTVSPropertyOp3
 70
     1
102
RTVSPropertyOp4
 70
     1
102
RTVSPropertyOp5
 70
     1
102
RTVSPropertyOp6
 70
     1
102
RTVSPropertyOp7
 70
     1
102
RTVSPropertyOp8
 70
     1
102
RTVSPropertyOp9
 70
     1
102
RTVSPropertyOp10
 70
     1
102
RTVSPropertyOp11
 70
     1
102
RTVSPropertyOp12
 70
     1
102
RTVSPropertyOp13
 70
     1
102
RTVSPropertyOp14
 70
     1
102
RTVSPropertyOp15
 70
     1
102
RTVSPropertyOp16
 70
     1
102
RTVSPropertyOp17
 70
     1
102
RTVSPropertyOp18
 70
     1
102
RTVSPropertyOp19
 70
     1
102
RTVSPropertyOp20
 70
     1
102
RTVSPropertyOp21
 70
     1
102
RTVSPropertyOp22
 70
     1
102
RTVSPropertyOp23
 70
     1
102
RTVSPropertyOp24
 70
     1
102
RTVSPropertyOp25
 70
     1
102
RTVSPropertyOp26
 70
     1
102
RTVSPropertyOp27
 70
     1
102
RTVSPropertyOp28
 70
     1
102
RTVSPropertyOp29
 70
     1
102
RTVSPropertyOp30
 70
     1
102
RTVSPropertyOp31
 70
     1
102
RTVSPropertyOp32
 70
     1
  0
XRECORD
  5
2C3
102
{ACAD_REACTORS
330
2C2
102
}
330
2C2
100
AcDbXrecord
280
     1
102
RTVSPropertyOp0
 70
     1
102
RTVSPropertyOp1
 70
     1
102
RTVSPropertyOp2
 70
     1
102
RTVSPropertyOp3
 70
     1
102
RTVSPropertyOp4
 70
     1
102
RTVSPropertyOp5
 70
     1
102
RTVSPropertyOp6
 70
     1
102
RTVSPropertyOp7
 70
     1
102
RTVSPropertyOp8
 70
     1
102
RTVSPropertyOp9
 70
     1
102
RTVSPropertyOp10
 70
     1
102
RTVSPropertyOp11
 70
     1
102
RTVSPropertyOp12
 70
     1
102
RTVSPropertyOp13
 70
     1
102
RTVSPropertyOp14
 70
     1
102
RTVSPropertyOp15
 70
     1
102
RTVSPropertyOp16
 70
     1
102
RTVSPropertyOp17
 70
     1
102
RTVSPropertyOp18
 70
     1
102
RTVSPropertyOp19
 70
     1
102
RTVSPropertyOp20
 70
     1
102
RTVSPropertyOp21
 70
     1
102
RTVSPropertyOp22
 70
     1
102
RTVSPropertyOp23
 70
     1
102
RTVSPropertyOp24
 70
     1
102
RTVSPropertyOp25
 70
     1
102
RTVSPropertyOp26
 70
     1
102
RTVSPropertyOp27
 70
     1
102
RTVSPropertyOp28
 70
     1
102
RTVSPropertyOp29
 70
     1
102
RTVSPropertyOp30
 70
     1
102
RTVSPropertyOp31
 70
     1
102
RTVSPropertyOp32
 70
     1
  0
XRECORD
  5
2CB
102
{ACAD_REACTORS
330
2CA
102
}
330
2CA
100
AcDbXrecord
280
     1
102
RTVSPropertyOp0
 70
     1
102
RTVSPropertyOp1
 70
     1
102
RTVSPropertyOp2
 70
     1
102
RTVSPropertyOp3
 70
     1
102
RTVSPropertyOp4
 70
     1
102
RTVSPropertyOp5
 70
     1
102
RTVSPropertyOp6
 70
     1
102
RTVSPropertyOp7
 70
     1
102
RTVSPropertyOp8
 70
     1
102
RTVSPropertyOp9
 70
     1
102
RTVSPropertyOp10
 70
     1
102
RTVSPropertyOp11
 70
     1
102
RTVSPropertyOp12
 70
     1
102
RTVSPropertyOp13
 70
     1
102
RTVSPropertyOp14
 70
     1
102
RTVSPropertyOp15
 70
     1
102
RTVSPropertyOp16
 70
     1
102
RTVSPropertyOp17
 70
     1
102
RTVSPropertyOp18
 70
     1
102
RTVSPropertyOp19
 70
     1
102
RTVSPropertyOp20
 70
     1
102
RTVSPropertyOp21
 70
     1
102
RTVSPropertyOp22
 70
     1
102
RTVSPropertyOp23
 70
     1
102
RTVSPropertyOp24
 70
     1
102
RTVSPropertyOp25
 70
     1
102
RTVSPropertyOp26
 70
     1
102
RTVSPropertyOp27
 70
     1
102
RTVSPropertyOp28
 70
     1
102
RTVSPropertyOp29
 70
     1
102
RTVSPropertyOp30
 70
     1
102
RTVSPropertyOp31
 70
     1
102
RTVSPropertyOp32
 70
     1
  0
XRECORD
  5
2AF
102
{ACAD_REACTORS
330
2AE
102
}
330
2AE
100
AcDbXrecord
280
     1
102
RTVSPropertyOp0
 70
     1
102
RTVSPropertyOp1
 70
     1
102
RTVSPropertyOp2
 70
     1
102
RTVSPropertyOp3
 70
     1
102
RTVSPropertyOp4
 70
     1
102
RTVSPropertyOp5
 70
     1
102
RTVSPropertyOp6
 70
     1
102
RTVSPropertyOp7
 70
     1
102
RTVSPropertyOp8
 70
     1
102
RTVSPropertyOp9
 70
     1
102
RTVSPropertyOp10
 70
     1
102
RTVSPropertyOp11
 70
     1
102
RTVSPropertyOp12
 70
     1
102
RTVSPropertyOp13
 70
     1
102
RTVSPropertyOp14
 70
     1
102
RTVSPropertyOp15
 70
     1
102
RTVSPropertyOp16
 70
     1
102
RTVSPropertyOp17
 70
     1
102
RTVSPropertyOp18
 70
     1
102
RTVSPropertyOp19
 70
     1
102
RTVSPropertyOp20
 70
     1
102
RTVSPropertyOp21
 70
     1
102
RTVSPropertyOp22
 70
     1
102
RTVSPropertyOp23
 70
     1
102
RTVSPropertyOp24
 70
     1
102
RTVSPropertyOp25
 70
     1
102
RTVSPropertyOp26
 70
     1
102
RTVSPropertyOp27
 70
     1
102
RTVSPropertyOp28
 70
     1
102
RTVSPropertyOp29
 70
     1
102
RTVSPropertyOp30
 70
     1
102
RTVSPropertyOp31
 70
     1
102
RTVSPropertyOp32
 70
     1
  0
XRECORD
  5
2B1
102
{ACAD_REACTORS
330
2B0
102
}
330
2B0
100
AcDbXrecord
280
     1
102
RTVSPropertyOp0
 70
     1
102
RTVSPropertyOp1
 70
     1
102
RTVSPropertyOp2
 70
     1
102
RTVSPropertyOp3
 70
     1
102
RTVSPropertyOp4
 70
     1
102
RTVSPropertyOp5
 70
     1
102
RTVSPropertyOp6
 70
     1
102
RTVSPropertyOp7
 70
     1
102
RTVSPropertyOp8
 70
     1
102
RTVSPropertyOp9
 70
     1
102
RTVSPropertyOp10
 70
     1
102
RTVSPropertyOp11
 70
     1
102
RTVSPropertyOp12
 70
     1
102
RTVSPropertyOp13
 70
     1
102
RTVSPropertyOp14
 70
     1
102
RTVSPropertyOp15
 70
     1
102
RTVSPropertyOp16
 70
     1
102
RTVSPropertyOp17
 70
     1
102
RTVSPropertyOp18
 70
     1
102
RTVSPropertyOp19
 70
     1
102
RTVSPropertyOp20
 70
     1
102
RTVSPropertyOp21
 70
     1
102
RTVSPropertyOp22
 70
     1
102
RTVSPropertyOp23
 70
     1
102
RTVSPropertyOp24
 70
     1
102
RTVSPropertyOp25
 70
     1
102
RTVSPropertyOp26
 70
     1
102
RTVSPropertyOp27
 70
     1
102
RTVSPropertyOp28
 70
     1
102
RTVSPropertyOp29
 70
     1
102
RTVSPropertyOp30
 70
     1
102
RTVSPropertyOp31
 70
     1
102
RTVSPropertyOp32
 70
     1
  0
XRECORD
  5
2B3
102
{ACAD_REACTORS
330
2B2
102
}
330
2B2
100
AcDbXrecord
280
     1
102
RTVSPropertyOp0
 70
     1
102
RTVSPropertyOp1
 70
     1
102
RTVSPropertyOp2
 70
     1
102
RTVSPropertyOp3
 70
     1
102
RTVSPropertyOp4
 70
     1
102
RTVSPropertyOp5
 70
     1
102
RTVSPropertyOp6
 70
     1
102
RTVSPropertyOp7
 70
     1
102
RTVSPropertyOp8
 70
     1
102
RTVSPropertyOp9
 70
     1
102
RTVSPropertyOp10
 70
     1
102
RTVSPropertyOp11
 70
     1
102
RTVSPropertyOp12
 70
     1
102
RTVSPropertyOp13
 70
     1
102
RTVSPropertyOp14
 70
     1
102
RTVSPropertyOp15
 70
     1
102
RTVSPropertyOp16
 70
     1
102
RTVSPropertyOp17
 70
     1
102
RTVSPropertyOp18
 70
     1
102
RTVSPropertyOp19
 70
     1
102
RTVSPropertyOp20
 70
     1
102
RTVSPropertyOp21
 70
     1
102
RTVSPropertyOp22
 70
     1
102
RTVSPropertyOp23
 70
     1
102
RTVSPropertyOp24
 70
     1
102
RTVSPropertyOp25
 70
     1
102
RTVSPropertyOp26
 70
     1
102
RTVSPropertyOp27
 70
     1
102
RTVSPropertyOp28
 70
     1
102
RTVSPropertyOp29
 70
     1
102
RTVSPropertyOp30
 70
     1
102
RTVSPropertyOp31
 70
     1
102
RTVSPropertyOp32
 70
     1
  0
XRECORD
  5
2B5
102
{ACAD_REACTORS
330
2B4
102
}
330
2B4
100
AcDbXrecord
280
     1
102
RTVSPropertyOp0
 70
     1
102
RTVSPropertyOp1
 70
     1
102
RTVSPropertyOp2
 70
     1
102
RTVSPropertyOp3
 70
     1
102
RTVSPropertyOp4
 70
     1
102
RTVSPropertyOp5
 70
     1
102
RTVSPropertyOp6
 70
     1
102
RTVSPropertyOp7
 70
     1
102
RTVSPropertyOp8
 70
     1
102
RTVSPropertyOp9
 70
     1
102
RTVSPropertyOp10
 70
     1
102
RTVSPropertyOp11
 70
     1
102
RTVSPropertyOp12
 70
     1
102
RTVSPropertyOp13
 70
     1
102
RTVSPropertyOp14
 70
     1
102
RTVSPropertyOp15
 70
     1
102
RTVSPropertyOp16
 70
     1
102
RTVSPropertyOp17
 70
     1
102
RTVSPropertyOp18
 70
     1
102
RTVSPropertyOp19
 70
     1
102
RTVSPropertyOp20
 70
     1
102
RTVSPropertyOp21
 70
     1
102
RTVSPropertyOp22
 70
     1
102
RTVSPropertyOp23
 70
     1
102
RTVSPropertyOp24
 70
     1
102
RTVSPropertyOp25
 70
     1
102
RTVSPropertyOp26
 70
     1
102
RTVSPropertyOp27
 70
     1
102
RTVSPropertyOp28
 70
     1
102
RTVSPropertyOp29
 70
     1
102
RTVSPropertyOp30
 70
     1
102
RTVSPropertyOp31
 70
     1
102
RTVSPropertyOp32
 70
     1
  0
XRECORD
  5
2C9
102
{ACAD_REACTORS
330
2C8
102
}
330
2C8
100
AcDbXrecord
280
     1
102
RTVSPropertyOp0
 70
     1
102
RTVSPropertyOp1
 70
     1
102
RTVSPropertyOp2
 70
     1
102
RTVSPropertyOp3
 70
     1
102
RTVSPropertyOp4
 70
     1
102
RTVSPropertyOp5
 70
     1
102
RTVSPropertyOp6
 70
     1
102
RTVSPropertyOp7
 70
     1
102
RTVSPropertyOp8
 70
     1
102
RTVSPropertyOp9
 70
     1
102
RTVSPropertyOp10
 70
     1
102
RTVSPropertyOp11
 70
     1
102
RTVSPropertyOp12
 70
     1
102
RTVSPropertyOp13
 70
     1
102
RTVSPropertyOp14
 70
     1
102
RTVSPropertyOp15
 70
     1
102
RTVSPropertyOp16
 70
     1
102
RTVSPropertyOp17
 70
     1
102
RTVSPropertyOp18
 70
     1
102
RTVSPropertyOp19
 70
     1
102
RTVSPropertyOp20
 70
     1
102
RTVSPropertyOp21
 70
     1
102
RTVSPropertyOp22
 70
     1
102
RTVSPropertyOp23
 70
     1
102
RTVSPropertyOp24
 70
     1
102
RTVSPropertyOp25
 70
     1
102
RTVSPropertyOp26
 70
     1
102
RTVSPropertyOp27
 70
     1
102
RTVSPropertyOp28
 70
     1
102
RTVSPropertyOp29
 70
     1
102
RTVSPropertyOp30
 70
     1
102
RTVSPropertyOp31
 70
     1
102
RTVSPropertyOp32
 70
     1
  0
XRECORD
  5
2BF
102
{ACAD_REACTORS
330
2BE
102
}
330
2BE
100
AcDbXrecord
280
     1
102
RTVSPropertyOp0
 70
     1
102
RTVSPropertyOp1
 70
     1
102
RTVSPropertyOp2
 70
     1
102
RTVSPropertyOp3
 70
     1
102
RTVSPropertyOp4
 70
     1
102
RTVSPropertyOp5
 70
     1
102
RTVSPropertyOp6
 70
     1
102
RTVSPropertyOp7
 70
     1
102
RTVSPropertyOp8
 70
     1
102
RTVSPropertyOp9
 70
     1
102
RTVSPropertyOp10
 70
     1
102
RTVSPropertyOp11
 70
     1
102
RTVSPropertyOp12
 70
     1
102
RTVSPropertyOp13
 70
     1
102
RTVSPropertyOp14
 70
     1
102
RTVSPropertyOp15
 70
     1
102
RTVSPropertyOp16
 70
     1
102
RTVSPropertyOp17
 70
     1
102
RTVSPropertyOp18
 70
     1
102
RTVSPropertyOp19
 70
     1
102
RTVSPropertyOp20
 70
     1
102
RTVSPropertyOp21
 70
     1
102
RTVSPropertyOp22
 70
     1
102
RTVSPropertyOp23
 70
     1
102
RTVSPropertyOp24
 70
     1
102
RTVSPropertyOp25
 70
     1
102
RTVSPropertyOp26
 70
     1
102
RTVSPropertyOp27
 70
     1
102
RTVSPropertyOp28
 70
     1
102
RTVSPropertyOp29
 70
     1
102
RTVSPropertyOp30
 70
     1
102
RTVSPropertyOp31
 70
     1
102
RTVSPropertyOp32
 70
     1
  0
XRECORD
  5
2C7
102
{ACAD_REACTORS
330
2C6
102
}
330
2C6
100
AcDbXrecord
280
     1
102
RTVSPropertyOp0
 70
     1
102
RTVSPropertyOp1
 70
     1
102
RTVSPropertyOp2
 70
     1
102
RTVSPropertyOp3
 70
     1
102
RTVSPropertyOp4
 70
     1
102
RTVSPropertyOp5
 70
     1
102
RTVSPropertyOp6
 70
     1
102
RTVSPropertyOp7
 70
     1
102
RTVSPropertyOp8
 70
     1
102
RTVSPropertyOp9
 70
     1
102
RTVSPropertyOp10
 70
     1
102
RTVSPropertyOp11
 70
     1
102
RTVSPropertyOp12
 70
     1
102
RTVSPropertyOp13
 70
     1
102
RTVSPropertyOp14
 70
     1
102
RTVSPropertyOp15
 70
     1
102
RTVSPropertyOp16
 70
     1
102
RTVSPropertyOp17
 70
     1
102
RTVSPropertyOp18
 70
     1
102
RTVSPropertyOp19
 70
     1
102
RTVSPropertyOp20
 70
     1
102
RTVSPropertyOp21
 70
     1
102
RTVSPropertyOp22
 70
     1
102
RTVSPropertyOp23
 70
     1
102
RTVSPropertyOp24
 70
     1
102
RTVSPropertyOp25
 70
     1
102
RTVSPropertyOp26
 70
     1
102
RTVSPropertyOp27
 70
     1
102
RTVSPropertyOp28
 70
     1
102
RTVSPropertyOp29
 70
     1
102
RTVSPropertyOp30
 70
     1
102
RTVSPropertyOp31
 70
     1
102
RTVSPropertyOp32
 70
     1
  0
ENDSEC
  0
EOF
